Google Drive Chloe.2009.1080p.BluRay.x264-Japhson

Discussion in 'BDRip | 720p/1080p' started by DDLbase, Apr 30, 2021.

  1. DDLbase

    DDLbase Administrator Staff Member

    [​IMG]

    Rating: 6.3/10 based on 70,133 user ratings

    Genres: Drama, Mystery, Romance, Thriller

    Suspecting her husband of infedelity, gynecologist, Dr.Catherine, hires an escort named Chloe in order to test his faithfulness. Soon, the relationships between all three intensify.

    [​IMG]
    Code:
    General
    Unique ID                   : 198990414739661689030119751874365039244 (0x95B428EB3AB6620BA2F8B58DB40F228C)
    Complete name               : Chloe.2009.1080p.BluRay.x264-Japhson.mkv
    Format                      : Matroska
    Format version              : Version 2
    File size                   : 6.55 GiB
    Duration                    : 1 h 36 min
    Overall bit rate            : 9 724 kb/s
    Encoded date                : UTC 2010-07-01 22:45:49
    Writing application         : mkvmerge v3.3.0 ('Language') built on Mar 24 2010 14:59:24
    Writing library             : libebml v0.8.0 + libmatroska v0.9.0
    
    Video
    ID                          : 1
    Format                      : AVC
    Format/Info                 : Advanced Video Codec
    Format profile              : [email protected]
    Format settings             : CABAC / 4 Ref Frames
    Format settings, CABAC      : Yes
    Format settings, Reference  : 4 frames
    Codec ID                    : V_MPEG4/ISO/AVC
    Duration                    : 1 h 36 min
    Bit rate                    : 8 222 kb/s
    Width                       : 1 920 pixels
    Height                      : 1 040 pixels
    Display aspect ratio        : 1.85:1
    Frame rate mode             : Constant
    Frame rate                  : 23.976 (24000/1001) FPS
    Color space                 : YUV
    Chroma subsampling          : 4:2:0
    Bit depth                   : 8 bits
    Scan type                   : Progressive
    Bits/(Pixel*Frame)          : 0.172
    Stream size                 : 5.40 GiB (82%)
    Writing library             : x264 core 98 r1649 c54c47d
    Encoding settings           : cabac=1 / ref=4 / deblock=1:-1:-1 / analyse=0x3:0x113 / me=umh / subme=7 / psy=1 / psy_rd=1.00:0.00 / mixed_ref=1 / me_range=16 / chroma_me=1 / trellis=1 / 8x8dct=1 / cqm=0 / deadzone=21,11 / fast_pskip=1 / chroma_qp_offset=-2 / threads=6 / sliced_threads=0 / nr=0 / decimate=1 / interlaced=0 / constrained_intra=0 / bframes=3 / b_pyramid=2 / b_adapt=2 / b_bias=0 / direct=3 / weightb=1 / weightp=2 / keyint=250 / keyint_min=25 / scenecut=40 / intra_refresh=0 / rc_lookahead=40 / rc=2pass / mbtree=1 / bitrate=8222 / ratetol=1.0 / qcomp=0.60 / qpmin=10 / qpmax=51 / qpstep=4 / cplxblur=20.0 / qblur=0.5 / vbv_maxrate=50000 / vbv_bufsize=50000 / ip_ratio=1.40 / aq=1:1.00 / nal_hrd=none
    Language                    : English
    Default                     : Yes
    Forced                      : Yes
    
    Audio
    ID                          : 2
    Format                      : DTS
    Format/Info                 : Digital Theater Systems
    Codec ID                    : A_DTS
    Duration                    : 1 h 36 min
    Bit rate mode               : Constant
    Bit rate                    : 1 509 kb/s
    Channel(s)                  : 6 channels
    Channel layout              : C L R Ls Rs LFE
    Sampling rate               : 48.0 kHz
    Frame rate                  : 93.750 FPS (512 SPF)
    Bit depth                   : 24 bits
    Compression mode            : Lossy
    Stream size                 : 1.02 GiB (16%)
    Language                    : English
    Default                     : Yes
    Forced                      : Yes
    
    Text
    ID                          : 3
    Format                      : UTF-8
    Codec ID                    : S_TEXT/UTF8
    Codec ID/Info               : UTF-8 Plain Text
    Language                    : English
    Default                     : Yes
    Forced                      : No
    Download - Mirror 1:
    Download - Mirror 2:
    Download - Mirror 3:
     
  2. Loading...


Share This Page