Google Drive Choke.2008.LIMITED.1080p.BluRay.x264-REFiNED

Discussion in 'BDRip | 720p/1080p' started by DDLbase, Apr 3, 2021.

  1. DDLbase

    DDLbase Administrator Staff Member

    [​IMG]

    Rating: 6.4/10 based on 31,598 user ratings

    Genres: Comedy, Drama

    A sex-addicted con-man pays for his mother’s hospital bills by playing on the sympathies of those who rescue him from choking to death.

    [​IMG]
    Code:
    General
    Unique ID                   : 203068953695421168483295618942168607991 (0x98C5A86A26B8E521A32D242F5C822CF7)
    Complete name               : Choke.2008.LIMITED.1080p.BluRay.x264-REFiNED.mkv
    Format                      : Matroska
    Format version              : Version 4
    File size                   : 7.95 GiB
    Duration                    : 1 h 31 min
    Overall bit rate            : 12.4 Mb/s
    Encoded date                : UTC 2016-04-23 11:02:11
    Writing application         : mkvmerge v9.0.1 ('Obstacles') 64bit
    Writing library             : libebml v1.3.3 + libmatroska v1.4.4
    
    Video
    ID                          : 1
    Format                      : AVC
    Format/Info                 : Advanced Video Codec
    Format profile              : [email protected]
    Format settings             : CABAC / 4 Ref Frames
    Format settings, CABAC      : Yes
    Format settings, Reference  : 4 frames
    Codec ID                    : V_MPEG4/ISO/AVC
    Duration                    : 1 h 31 min
    Bit rate                    : 10.9 Mb/s
    Width                       : 1 920 pixels
    Height                      : 1 040 pixels
    Display aspect ratio        : 1.85:1
    Frame rate mode             : Constant
    Frame rate                  : 23.976 (24000/1001) FPS
    Color space                 : YUV
    Chroma subsampling          : 4:2:0
    Bit depth                   : 8 bits
    Scan type                   : Progressive
    Bits/(Pixel*Frame)          : 0.227
    Stream size                 : 6.82 GiB (86%)
    Writing library             : x264 core 76 r1271 496d79d
    Encoding settings           : cabac=1 / ref=4 / deblock=1:0:0 / analyse=0x3:0x113 / me=umh / subme=9 / psy=1 / psy_rd=1.0:0.3 / mixed_ref=1 / me_range=16 / chroma_me=1 / trellis=1 / 8x8dct=1 / cqm=0 / deadzone=6,6 / chroma_qp_offset=-4 / threads=6 / nr=0 / decimate=1 / mbaff=0 / bframes=3 / b_pyramid=0 / b_adapt=1 / b_bias=0 / direct=1 / wpredb=1 / keyint=250 / keyint_min=25 / scenecut=40 / rc_lookahead=60 / rc=2pass / mbtree=1 / bitrate=10884 / ratetol=1.0 / qcomp=0.80 / qpmin=10 / qpmax=51 / qpstep=4 / cplxblur=20.0 / qblur=0.5 / ip_ratio=1.10 / aq=1:0.50
    Language                    : English
    Default                     : Yes
    Forced                      : No
    
    Audio
    ID                          : 2
    Format                      : DTS
    Format/Info                 : Digital Theater Systems
    Codec ID                    : A_DTS
    Duration                    : 1 h 31 min
    Bit rate mode               : Constant
    Bit rate                    : 1 509 kb/s
    Channel(s)                  : 6 channels
    Channel layout              : C L R Ls Rs LFE
    Sampling rate               : 48.0 kHz
    Frame rate                  : 93.750 FPS (512 SPF)
    Bit depth                   : 24 bits
    Compression mode            : Lossy
    Stream size                 : 991 MiB (12%)
    Title                       : DTS 5.1 1536 kbps
    Language                    : English
    Default                     : No
    Forced                      : No
    
    Text
    ID                          : 3
    Format                      : UTF-8
    Codec ID                    : S_TEXT/UTF8
    Codec ID/Info               : UTF-8 Plain Text
    Language                    : English
    Default                     : No
    Forced                      : No
    
    Menu
    00:00:00.000                : en:00:00:00.000
    00:03:36.508                : en:00:03:36.508
    00:09:04.210                : en:00:09:04.210
    00:15:49.282                : en:00:15:49.282
    00:17:58.119                : en:00:17:58.119
    00:20:48.956                : en:00:20:48.956
    00:23:53.515                : en:00:23:53.515
    00:27:56.592                : en:00:27:56.592
    00:33:08.737                : en:00:33:08.737
    00:35:04.561                : en:00:35:04.561
    00:36:56.423                : en:00:36:56.423
    00:40:55.745                : en:00:40:55.745
    00:43:25.269                : en:00:43:25.269
    00:47:45.571                : en:00:47:45.571
    00:51:32.423                : en:00:51:32.423
    00:57:05.922                : en:00:57:05.922
    00:59:04.458                : en:00:59:04.458
    01:04:40.877                : en:01:04:40.877
    01:09:05.475                : en:01:09:05.475
    01:13:02.670                : en:01:13:02.670
    01:15:08.587                : en:01:15:08.587
    01:18:47.932                : en:01:18:47.932
    01:21:41.105                : en:01:21:41.105
    01:26:35.315                : en:01:26:35.315
    Download - Mirror 1:
    Download - Mirror 2:
     
  2. Loading...


Share This Page