Google Drive Columbus.2017.1080p.BluRay.X264-AMIABLE

Discussion in 'BDRip | 720p/1080p' started by DDLbase, Apr 20, 2021.

  1. DDLbase

    DDLbase Administrator Staff Member

    [​IMG]

    Rating: 7.2/10 based on 14,804 user ratings

    Genre: Drama

    A Korean-born man finds himself stuck in Columbus, Indiana, where his architect father is in a coma. The man meets a young woman who wants to stay in Columbus with her mother, a recovering addict, instead of pursuing her own dreams.

    [​IMG]
    Code:
    General
    Unique ID                   : 0 (0x0)
    Complete name               : Columbus.2017.1080p.BluRay.X264-AMIABLE.mkv
    Format                      : Matroska
    Format version              : Version 4
    File size                   : 7.65 GiB
    Duration                    : 1 h 44 min
    Overall bit rate            : 10.5 Mb/s
    Encoded date                : UTC 2010-02-22 21:41:29
    Writing application         : no_variable_data
    Writing library             : no_variable_data
    
    Video
    ID                          : 1
    Format                      : AVC
    Format/Info                 : Advanced Video Codec
    Format profile              : [email protected]
    Format settings             : CABAC / 4 Ref Frames
    Format settings, CABAC      : Yes
    Format settings, Reference  : 4 frames
    Codec ID                    : V_MPEG4/ISO/AVC
    Duration                    : 1 h 44 min
    Bit rate                    : 9 021 kb/s
    Width                       : 1 920 pixels
    Height                      : 1 040 pixels
    Display aspect ratio        : 1.85:1
    Frame rate mode             : Constant
    Frame rate                  : 24.000 FPS
    Color space                 : YUV
    Chroma subsampling          : 4:2:0
    Bit depth                   : 8 bits
    Scan type                   : Progressive
    Bits/(Pixel*Frame)          : 0.188
    Stream size                 : 6.40 GiB (84%)
    Writing library             : x264 core 157 r2935 545de2f
    Encoding settings           : cabac=1 / ref=4 / deblock=1:-3:-3 / analyse=0x3:0x113 / me=umh / subme=8 / psy=1 / psy_rd=1.00:0.00 / mixed_ref=1 / me_range=32 / chroma_me=1 / trellis=2 / 8x8dct=1 / cqm=0 / deadzone=21,11 / fast_pskip=1 / chroma_qp_offset=-2 / threads=24 / lookahead_threads=4 / sliced_threads=0 / nr=0 / decimate=1 / interlaced=0 / bluray_compat=0 / constrained_intra=0 / bframes=3 / b_pyramid=2 / b_adapt=2 / b_bias=0 / direct=3 / weightb=1 / open_gop=0 / weightp=2 / keyint=240 / keyint_min=24 / scenecut=40 / intra_refresh=0 / rc_lookahead=50 / rc=2pass / mbtree=1 / bitrate=9021 / ratetol=1.0 / qcomp=0.60 / qpmin=0 / qpmax=69 / qpstep=4 / cplxblur=20.0 / qblur=0.5 / ip_ratio=1.40 / aq=3:0.80
    Default                     : Yes
    Forced                      : No
    Statistics Tags Issue       : no_variable_data 1970-01-01 00:00:00 / no_variable_data 2010-02-22 21:41:29
    FromStats_BitRate           : 9021691
    FromStats_Duration          : 01:44:01.209000000
    FromStats_FrameCount        : 149789
    FromStats_StreamSize        : 7038282696
    
    Audio
    ID                          : 2
    Format                      : DTS
    Format/Info                 : Digital Theater Systems
    Codec ID                    : A_DTS
    Duration                    : 1 h 44 min
    Bit rate mode               : Constant
    Bit rate                    : 1 509 kb/s
    Channel(s)                  : 6 channels
    Channel layout              : C L R Ls Rs LFE
    Sampling rate               : 48.0 kHz
    Frame rate                  : 93.750 FPS (512 SPF)
    Bit depth                   : 24 bits
    Compression mode            : Lossy
    Stream size                 : 1.10 GiB (14%)
    Language                    : English
    Default                     : Yes
    Forced                      : No
    Statistics Tags Issue       : no_variable_data 1970-01-01 00:00:00 / no_variable_data 2010-02-22 21:41:29
    FromStats_BitRate           : 1508999
    FromStats_Duration          : 01:44:01.270000000
    FromStats_FrameCount        : 585119
    FromStats_StreamSize        : 1177259428
    
    Text #1
    ID                          : 3
    Format                      : UTF-8
    Codec ID                    : S_TEXT/UTF8
    Codec ID/Info               : UTF-8 Plain Text
    Language                    : English
    Default                     : No
    Forced                      : No
    Statistics Tags Issue       : no_variable_data 1970-01-01 00:00:00 / no_variable_data 2010-02-22 21:41:29
    FromStats_BitRate           : 39
    FromStats_Duration          : 01:40:08.500000000
    FromStats_FrameCount        : 1168
    FromStats_StreamSize        : 29760
    
    Text #2
    ID                          : 4
    Format                      : UTF-8
    Codec ID                    : S_TEXT/UTF8
    Codec ID/Info               : UTF-8 Plain Text
    Title                       : SDH
    Language                    : English
    Default                     : No
    Forced                      : No
    Statistics Tags Issue       : no_variable_data 1970-01-01 00:00:00 / no_variable_data 2010-02-22 21:41:29
    FromStats_BitRate           : 42
    FromStats_Duration          : 01:41:35.958000000
    FromStats_FrameCount        : 1225
    FromStats_StreamSize        : 32375
    
    Menu
    00:00:00.000                : en:00:00:00.000
    00:08:55.125                : en:00:08:55.125
    00:19:27.708                : en:00:19:27.708
    00:27:10.958                : en:00:27:10.958
    00:38:33.917                : en:00:38:33.917
    00:46:40.375                : en:00:46:40.375
    00:53:22.333                : en:00:53:22.333
    01:02:49.958                : en:01:02:49.958
    01:11:24.500                : en:01:11:24.500
    01:22:26.000                : en:01:22:26.000
    01:31:38.958                : en:01:31:38.958
    01:41:50.667                : en:01:41:50.667
    Download - Mirror 1:
    Download - Mirror 2:
     
  2. Loading...


Share This Page