Google Drive Contagion.2011.1080p.BluRay.X264-AMIABLE

Discussion in 'BDRip | 720p/1080p' started by DDLbase, Mar 17, 2020.

  1. DDLbase

    DDLbase Administrator Staff Member

    [​IMG]

    Rating: 6.7/10 based on 218,369 user ratings

    Genres: Action, Drama, Sci-Fi, Thriller

    Healthcare professionals, government officials and everyday people find themselves in the midst of a worldwide epidemic as the CDC works to find a cure.

    [​IMG]
    Code:
    General
    Complete name               : Contagion.2011.1080p.BluRay.X264-AMIABLE.mkv
    Format                      : Matroska
    Format version              : Version 2
    File size                   : 7.65 GiB
    Duration                    : 1 h 46 min
    Overall bit rate            : 10.3 Mb/s
    Writing application         : x264.exe
    Writing library             : mkv2rls v1.4 (date: 2011 mar 29)
    
    Video
    ID                          : 1
    Format                      : AVC
    Format/Info                 : Advanced Video Codec
    Format profile              : [email protected]
    Format settings             : CABAC / 4 Ref Frames
    Format settings, CABAC      : Yes
    Format settings, Reference  : 4 frames
    Codec ID                    : V_MPEG4/ISO/AVC
    Duration                    : 1 h 46 min
    Bit rate                    : 8 784 kb/s
    Width                       : 1 920 pixels
    Height                      : 1 080 pixels
    Display aspect ratio        : 16:9
    Frame rate mode             : Constant
    Frame rate                  : 23.976 (24000/1001) FPS
    Color space                 : YUV
    Chroma subsampling          : 4:2:0
    Bit depth                   : 8 bits
    Scan type                   : Progressive
    Bits/(Pixel*Frame)          : 0.177
    Stream size                 : 6.38 GiB (83%)
    Writing library             : x264 core 120 r2120 0c7dab9
    Encoding settings           : cabac=1 / ref=4 / deblock=1:0:0 / analyse=0x3:0x113 / me=umh / subme=8 / psy=1 / psy_rd=1.00:0.00 / mixed_ref=1 / me_range=16 / chroma_me=1 / trellis=1 / 8x8dct=1 / cqm=0 / deadzone=21,11 / fast_pskip=1 / chroma_qp_offset=-2 / threads=12 / sliced_threads=0 / nr=0 / decimate=1 / interlaced=0 / bluray_compat=0 / constrained_intra=0 / bframes=3 / b_pyramid=2 / b_adapt=2 / b_bias=0 / direct=3 / weightb=1 / open_gop=0 / weightp=2 / keyint=240 / keyint_min=24 / scenecut=40 / intra_refresh=0 / rc_lookahead=50 / rc=2pass / mbtree=1 / bitrate=8784 / ratetol=1.0 / qcomp=0.60 / qpmin=0 / qpmax=69 / qpstep=4 / cplxblur=20.0 / qblur=0.5 / ip_ratio=1.40 / aq=1:1.00
    Language                    : English
    Default                     : Yes
    Forced                      : No
    
    Audio
    ID                          : 2
    Format                      : DTS
    Format/Info                 : Digital Theater Systems
    Codec ID                    : A_DTS
    Duration                    : 1 h 46 min
    Bit rate mode               : Constant
    Bit rate                    : 1 509 kb/s
    Channel(s)                  : 6 channels
    Channel layout              : C L R Ls Rs LFE
    Sampling rate               : 48.0 kHz
    Frame rate                  : 93.750 FPS (512 SPF)
    Bit depth                   : 24 bits
    Compression mode            : Lossy
    Stream size                 : 1.12 GiB (15%)
    Language                    : English
    Default                     : Yes
    Forced                      : No
    
    Text
    ID                          : 3
    Format                      : UTF-8
    Codec ID                    : S_TEXT/UTF8
    Codec ID/Info               : UTF-8 Plain Text
    Language                    : English
    Default                     : No
    Forced                      : No
    
    Menu
    00:00:00.000                : en:00:00:00.000
    00:04:33.356                : en:00:04:33.356
    00:07:26.780                : en:00:07:26.780
    00:11:08.960                : en:00:11:08.960
    00:14:20.818                : en:00:14:20.818
    00:16:01.043                : en:00:16:01.043
    00:17:44.814                : en:00:17:44.814
    00:20:15.464                : en:00:20:15.464
    00:22:23.634                : en:00:22:23.634
    00:24:11.909                : en:00:24:11.909
    00:26:55.781                : en:00:26:55.781
    00:30:31.997                : en:00:30:31.997
    00:34:17.097                : en:00:34:17.097
    00:36:35.026                : en:00:36:35.026
    00:38:40.735                : en:00:38:40.735
    00:41:28.236                : en:00:41:28.236
    00:42:51.068                : en:00:42:51.068
    00:46:55.146                : en:00:46:55.146
    00:49:49.403                : en:00:49:49.403
    00:52:00.951                : en:00:52:00.951
    00:53:57.609                : en:00:53:57.609
    00:57:30.364                : en:00:57:30.364
    01:00:54.234                : en:01:00:54.234
    01:03:22.716                : en:01:03:22.716
    01:07:42.392                : en:01:07:42.392
    01:10:21.259                : en:01:10:21.259
    01:12:34.225                : en:01:12:34.225
    01:15:35.322                : en:01:15:35.322
    01:18:10.227                : en:01:18:10.227
    01:22:34.032                : en:01:22:34.032
    01:25:23.410                : en:01:25:23.410
    01:31:28.358                : en:01:31:28.358
    01:34:35.295                : en:01:34:35.295
    01:36:10.556                : en:01:36:10.556
    01:41:28.332                : en:01:41:28.332
    Download:
     
  2. Loading...


Share This Page