Google Drive Cosmos.2019.1080p.WEB-DL.H264.AC3-EVO

Discussion in 'Web-DL / Webrip | 1080p' started by DDLbase, Nov 10, 2019.

  1. DDLbase

    DDLbase Administrator Staff Member

    [​IMG]
    [​IMG]
    Code:
    General
    Unique ID                   : 210652426698547962391847627528929571269 (0x9E7A2E8032DEAA2F664734E875AC71C5)
    Complete name               : Cosmos.2019.1080p.WEB-DL.H264.AC3-EVO.mkv
    Format                      : Matroska
    Format version              : Version 4 / Version 2
    File size                   : 4.51 GiB
    Duration                    : 2h 8mn
    Overall bit rate            : 5 006 Kbps
    Encoded date                : UTC 2019-11-08 00:23:02
    Writing application         : mkvmerge v35.0.0 ('All The Love In The World') 64-bit
    Writing library             : libebml v1.3.9 + libmatroska v1.5.2
    
    Video
    ID                          : 3
    Format                      : AVC
    Format/Info                 : Advanced Video Codec
    Format profile              : [email protected]
    Format settings, CABAC      : Yes
    Format settings, ReFrames   : 5 frames
    Codec ID                    : V_MPEG4/ISO/AVC
    Duration                    : 2h 8mn
    Bit rate                    : 4 620 Kbps
    Width                       : 1 920 pixels
    Height                      : 800 pixels
    Display aspect ratio        : 2.40:1
    Frame rate mode             : Constant
    Frame rate                  : 24.000 fps
    Color space                 : YUV
    Chroma subsampling          : 4:2:0
    Bit depth                   : 8 bits
    Scan type                   : Progressive
    Bits/(Pixel*Frame)          : 0.125
    Stream size                 : 4.16 GiB (92%)
    Language                    : English
    Default                     : Yes
    Forced                      : No
    Color range                 : Limited
    Color primaries             : BT.709
    Transfer characteristics    : BT.709
    Matrix coefficients         : BT.709
    
    Audio
    ID                          : 2
    Format                      : AC-3
    Format/Info                 : Audio Coding 3
    Mode extension              : CM (complete main)
    Format settings, Endianness : Big
    Codec ID                    : A_AC3
    Duration                    : 2h 8mn
    Bit rate mode               : Constant
    Bit rate                    : 384 Kbps
    Channel(s)                  : 6 channels
    Channel positions           : Front: L C R, Side: L R, LFE
    Sampling rate               : 48.0 KHz
    Frame rate                  : 31.250 fps (1536 spf)
    Compression mode            : Lossy
    Delay relative to video     : -42ms
    Stream size                 : 354 MiB (8%)
    Language                    : English
    Default                     : Yes
    Forced                      : No
    
    Text
    ID                          : 1
    Format                      : UTF-8
    Codec ID                    : S_TEXT/UTF8
    Codec ID/Info               : UTF-8 Plain Text
    Duration                    : 2h 8mn
    Bit rate                    : 73 bps
    Count of elements           : 1748
    Stream size                 : 69.4 KiB (0%)
    Language                    : English
    Default                     : Yes
    Forced                      : No
    
    Menu
    00:00:00.000                : en:Chapter 1
    00:09:04.544                : en:Chapter 2
    00:18:29.108                : en:Chapter 3
    00:29:31.770                : en:Chapter 4
    00:38:29.306                : en:Chapter 5
    00:50:20.016                : en:Chapter 6
    01:03:52.827                : en:Chapter 7
    01:13:19.392                : en:Chapter 8
    01:19:06.738                : en:Chapter 9
    01:28:53.324                : en:Chapter 10
    01:36:54.804                : en:Chapter 11
    01:44:59.288                : en:Chapter 12
    01:51:39.687                : en:Chapter 13
    02:00:33.220                : en:Chapter 14
    02:07:24.631                : en:Chapter 15
    Download:
     
  2. Loading...


Share This Page