Google Drive Crimes.of.the.Future.2022.2160p.WEB-DL.DD5.1.HDR.HEVC-CMRG

Discussion in 'Web-DL / Webrip | 4K' started by DDLbase, Jun 21, 2022.

  1. DDLbase

    DDLbase Administrator Staff Member

    [​IMG]

    Rating: 6.5/10 based on 4,391 user ratings

    Genres: Drama, Horror, Sci-Fi

    Humans adapt to a synthetic environment, with new transformations and mutations. With his partner Caprice, Saul Tenser, celebrity performance artist, publicly showcases the metamorphosis of his organs in avant-garde performances.

    [​IMG]
    Code:
    General
    Unique ID                   : 189334852187417295420584123380312302877 (0x8E7090EE2EE8CA4AB998B7EA7FF3E51D)
    Complete name               : Crimes.of.the.Future.2022.2160p.WEB-DL.DD5.1.HDR.HEVC-CMRG.mkv
    Format                      : Matroska
    Format version              : Version 4
    File size                   : 11.0 GiB
    Duration                    : 1 h 47 min
    Overall bit rate            : 14.6 Mb/s
    Encoded date                : UTC 2022-06-21 04:04:34
    Writing application         : mkvmerge v61.0.0 ('So') 64-bit
    Writing library             : libebml v1.4.2 + libmatroska v1.6.4
    
    Video
    ID                          : 1
    Format                      : HEVC
    Format/Info                 : High Efficiency Video Coding
    Format profile              : Main [email protected]@High
    HDR format                  : SMPTE ST 2086, HDR10 compatible
    Codec ID                    : V_MPEGH/ISO/HEVC
    Duration                    : 1 h 47 min
    Bit rate                    : 14.3 Mb/s
    Width                       : 3 836 pixels
    Height                      : 2 072 pixels
    Display aspect ratio        : 1.85:1
    Frame rate mode             : Constant
    Frame rate                  : 23.976 FPS
    Color space                 : YUV
    Chroma subsampling          : 4:2:0 (Type 2)
    Bit depth                   : 10 bits
    Bits/(Pixel*Frame)          : 0.075
    Stream size                 : 10.7 GiB (97%)
    Language                    : English
    Default                     : Yes
    Forced                      : No
    Color range                 : Limited
    Color primaries             : BT.2020
    Transfer characteristics    : PQ
    Matrix coefficients         : BT.2020 non-constant
    Mastering display color pri : BT.2020
    Mastering display luminance : min: 0.0050 cd/m2, max: 1000 cd/m2
    Maximum Content Light Level : 5334 cd/m2
    Maximum Frame-Average Light : 96 cd/m2
    
    Audio
    ID                          : 2
    Format                      : AC-3
    Format/Info                 : Audio Coding 3
    Commercial name             : Dolby Digital
    Codec ID                    : A_AC3
    Duration                    : 1 h 47 min
    Bit rate mode               : Constant
    Bit rate                    : 384 kb/s
    Channel(s)                  : 6 channels
    Channel layout              : L R C LFE Ls Rs
    Sampling rate               : 48.0 kHz
    Frame rate                  : 31.250 FPS (1536 SPF)
    Compression mode            : Lossy
    Stream size                 : 295 MiB (3%)
    Language                    : English
    Service kind                : Complete Main
    Default                     : Yes
    Forced                      : No
    
    Text #1
    ID                          : 3
    Format                      : UTF-8
    Codec ID                    : S_TEXT/UTF8
    Codec ID/Info               : UTF-8 Plain Text
    Duration                    : 1 h 41 min
    Bit rate                    : 57 b/s
    Count of elements           : 1824
    Stream size                 : 42.5 KiB (0%)
    Title                       : SDH
    Language                    : English
    Default                     : No
    Forced                      : No
    
    Text #2
    ID                          : 4
    Format                      : UTF-8
    Codec ID                    : S_TEXT/UTF8
    Codec ID/Info               : UTF-8 Plain Text
    Duration                    : 1 h 37 min
    Bit rate                    : 50 b/s
    Count of elements           : 1420
    Stream size                 : 35.6 KiB (0%)
    Language                    : English
    Default                     : No
    Forced                      : No
    
    Menu
    00:00:00.000                : Chapter 01
    00:10:11.736                : Chapter 02
    00:20:34.734                : Chapter 03
    00:34:50.840                : Chapter 04
    00:42:13.283                : Chapter 05
    00:55:37.212                : Chapter 06
    01:05:36.436                : Chapter 07
    01:15:11.970                : Chapter 08
    01:23:17.789                : Chapter 09
    01:32:33.511                : Chapter 10
    01:41:09.569                : Chapter 11
    Download - Mirror 1:
    Download - Mirror 2:
     
  2. Loading...


Share This Page