Google Drive Cruel.Hearts.2020.1080p.WEB-DL.H264.AC3-EVO

Discussion in 'Web-DL / Webrip | 1080p' started by DDLbase, Feb 13, 2020.

  1. DDLbase

    DDLbase Administrator Staff Member

    [​IMG]
    [​IMG]
    Code:
    General
    Unique ID                   : 144464674381889466292982688265113193070 (0x6CAEE25CE2BD036F6E5F4A9555544A6E)
    Complete name               : Cruel.Hearts.2020.1080p.WEB-DL.H264.AC3-EVO.mkv
    Format                      : Matroska
    Format version              : Version 4
    File size                   : 3.41 GiB
    Duration                    : 1 h 26 min
    Overall bit rate            : 5 638 kb/s
    Encoded date                : UTC 2020-02-11 05:10:10
    Writing application         : mkvmerge v35.0.0 ('All The Love In The World') 64-bit
    Writing library             : libebml v1.3.9 + libmatroska v1.5.2
    
    Video
    ID                          : 3
    Format                      : AVC
    Format/Info                 : Advanced Video Codec
    Format profile              : [email protected]
    Format settings             : CABAC / 4 Ref Frames
    Format settings, CABAC      : Yes
    Format settings, Reference  : 4 frames
    Codec ID                    : V_MPEG4/ISO/AVC
    Duration                    : 1 h 26 min
    Bit rate                    : 5 253 kb/s
    Width                       : 1 912 pixels
    Height                      : 1 072 pixels
    Display aspect ratio        : 16:9
    Frame rate mode             : Constant
    Frame rate                  : 23.976 (24000/1001) FPS
    Color space                 : YUV
    Chroma subsampling          : 4:2:0
    Bit depth                   : 8 bits
    Scan type                   : Progressive
    Bits/(Pixel*Frame)          : 0.107
    Stream size                 : 3.18 GiB (93%)
    Language                    : English
    Default                     : Yes
    Forced                      : No
    Color range                 : Limited
    Color primaries             : BT.709
    Transfer characteristics    : BT.709
    Matrix coefficients         : BT.709
    
    Audio
    ID                          : 2
    Format                      : AC-3
    Format/Info                 : Audio Coding 3
    Commercial name             : Dolby Digital
    Codec ID                    : A_AC3
    Duration                    : 1 h 26 min
    Bit rate mode               : Constant
    Bit rate                    : 384 kb/s
    Channel(s)                  : 6 channels
    Channel layout              : L R C LFE Ls Rs
    Sampling rate               : 48.0 kHz
    Frame rate                  : 31.250 FPS (1536 SPF)
    Bit depth                   : 16 bits
    Compression mode            : Lossy
    Delay relative to video     : -42 ms
    Stream size                 : 238 MiB (7%)
    Language                    : English
    Service kind                : Complete Main
    Default                     : Yes
    Forced                      : No
    
    Text
    ID                          : 1
    Format                      : UTF-8
    Codec ID                    : S_TEXT/UTF8
    Codec ID/Info               : UTF-8 Plain Text
    Duration                    : 1 h 26 min
    Bit rate                    : 89 b/s
    Count of elements           : 1252
    Stream size                 : 56.9 KiB (0%)
    Language                    : English
    Default                     : Yes
    Forced                      : No
    
    Menu
    00:00:00.000                : en:Chapter 1
    00:11:03.955                : en:Chapter 2
    00:19:46.518                : en:Chapter 3
    00:31:01.067                : en:Chapter 4
    00:40:12.660                : en:Chapter 5
    00:50:29.942                : en:Chapter 6
    00:59:54.172                : en:Chapter 7
    01:10:14.875                : en:Chapter 8
    01:19:24.466                : en:Chapter 9
    01:25:16.441                : en:Chapter 10
    Download:
     
  2. Loading...


Share This Page