Google Drive Cruella.2021.1080p.Bluray.DTS-HD.MA.7.1.X264-EVO

Discussion in 'BDRip | 720p/1080p' started by DDLbase, Aug 12, 2021.

  1. DDLbase

    DDLbase Administrator Staff Member

    [​IMG]

    Rating: 7.4/10 based on 114.756 user ratings

    Genres: Comedy, Crime

    A live-action prequel feature film following a young Cruella de Vil.

    [​IMG]
    Code:
    General
    Unique ID                   : 253423501579354421501868345463249605265 (0xBEA7974DC33F91186E15F5B56D249291)
    Complete name               : Cruella.2021.1080p.Bluray.DTS-HD.MA.7.1.X264-EVO.mkv
    Format                      : Matroska
    Format version              : Version 4
    File size                   : 17.5 GiB
    Duration                    : 2 h 13 min
    Overall bit rate mode       : Variable
    Overall bit rate            : 18.7 Mb/s
    Encoded date                : UTC 2021-08-11 01:12:16
    Writing application         : mkvmerge v49.0.0 ('Sick Of Losing Soulmates') 64-bit
    Writing library             : libebml v1.4.0 + libmatroska v1.6.1
    
    Video
    ID                          : 1
    Format                      : AVC
    Format/Info                 : Advanced Video Codec
    Format profile              : [email protected]
    Format settings             : CABAC / 4 Ref Frames
    Format settings, CABAC      : Yes
    Format settings, Reference  : 4 frames
    Codec ID                    : V_MPEG4/ISO/AVC
    Duration                    : 2 h 13 min
    Bit rate                    : 13.0 Mb/s
    Width                       : 1 920 pixels
    Height                      : 1 036 pixels
    Display aspect ratio        : 1.85:1
    Frame rate mode             : Constant
    Frame rate                  : 23.976 (24000/1001) FPS
    Color space                 : YUV
    Chroma subsampling          : 4:2:0
    Bit depth                   : 8 bits
    Scan type                   : Progressive
    Bits/(Pixel*Frame)          : 0.273
    Stream size                 : 11.9 GiB (68%)
    Writing library             : x264 core 142 r2479 dd79a61
    Encoding settings           : cabac=1 / ref=1 / deblock=1:0:0 / analyse=0x3:0x3 / me=dia / subme=1 / psy=1 / psy_rd=1.00:0.00 / mixed_ref=0 / me_range=16 / chroma_me=1 / trellis=0 / 8x8dct=1 / cqm=0 / deadzone=21,11 / fast_pskip=1 / chroma_qp_offset=0 / threads=24 / lookahead_threads=4 / sliced_threads=0 / nr=0 / decimate=1 / interlaced=0 / bluray_compat=0 / constrained_intra=0 / bframes=3 / b_pyramid=2 / b_adapt=1 / b_bias=0 / direct=1 / weightb=1 / open_gop=0 / weightp=1 / keyint=240 / keyint_min=24 / scenecut=40 / intra_refresh=0 / rc_lookahead=0 / rc=abr / mbtree=0 / bitrate=13000 / ratetol=1.0 / qcomp=0.60 / qpmin=0 / qpmax=69 / qpstep=4 / vbv_maxrate=62500 / vbv_bufsize=78125 / nal_hrd=none / filler=0 / ip_ratio=1.40 / pb_ratio=1.30 / aq=1:1.00
    Default                     : Yes
    Forced                      : No
    Color range                 : Limited
    Color primaries             : BT.709
    Transfer characteristics    : BT.709
    Matrix coefficients         : BT.709
    
    Audio #1
    ID                          : 2
    Format                      : AC-3
    Format/Info                 : Audio Coding 3
    Commercial name             : Dolby Digital
    Codec ID                    : A_AC3
    Duration                    : 2 h 13 min
    Bit rate mode               : Constant
    Bit rate                    : 640 kb/s
    Channel(s)                  : 6 channels
    Channel layout              : L R C LFE Ls Rs
    Sampling rate               : 48.0 kHz
    Frame rate                  : 31.250 FPS (1536 SPF)
    Compression mode            : Lossy
    Delay relative to video     : -5 ms
    Stream size                 : 613 MiB (3%)
    Title                       : Surround
    Language                    : English
    Service kind                : Complete Main
    Default                     : Yes
    Forced                      : No
    
    Audio #2
    ID                          : 3
    Format                      : DTS XLL
    Format/Info                 : Digital Theater Systems
    Commercial name             : DTS-HD Master Audio
    Codec ID                    : A_DTS
    Duration                    : 2 h 13 min
    Bit rate mode               : Variable
    Bit rate                    : 5 268 kb/s
    Channel(s)                  : 8 channels
    Channel layout              : C L R LFE Lb Rb Lss Rss
    Sampling rate               : 48.0 kHz
    Frame rate                  : 93.750 FPS (512 SPF)
    Bit depth                   : 24 bits
    Compression mode            : Lossless
    Stream size                 : 4.93 GiB (28%)
    Title                       : Surround
    Language                    : English
    Default                     : No
    Forced                      : No
    
    Text
    ID                          : 4
    Format                      : PGS
    Muxing mode                 : zlib
    Codec ID                    : S_HDMV/PGS
    Codec ID/Info               : Picture based subtitle format used on BDs/HD-DVDs
    Duration                    : 2 h 11 min
    Bit rate                    : 35.0 kb/s
    Count of elements           : 3804
    Stream size                 : 33.0 MiB (0%)
    Language                    : English
    Default                     : No
    Forced                      : No
    
    Menu
    00:00:00.000                : :Chapter 01
    00:05:08.266                : :Chapter 02
    00:15:21.295                : :Chapter 03
    00:25:48.881                : :Chapter 04
    00:30:55.103                : :Chapter 05
    00:34:31.194                : :Chapter 06
    00:35:42.974                : :Chapter 07
    00:39:34.998                : :Chapter 08
    00:42:35.595                : :Chapter 09
    00:46:27.451                : :Chapter 10
    00:52:29.396                : :Chapter 11
    00:58:15.659                : :Chapter 12
    01:04:44.089                : :Chapter 13
    01:15:05.126                : :Chapter 14
    01:17:16.715                : :Chapter 15
    01:21:10.741                : :Chapter 16
    01:23:12.738                : :Chapter 17
    01:26:23.512                : :Chapter 18
    01:30:43.897                : :Chapter 19
    01:37:40.813                : :Chapter 20
    01:47:32.404                : :Chapter 21
    01:55:29.965                : :Chapter 22
    02:00:19.629                : :Chapter 23
    02:02:48.570                : :Chapter 24
    02:04:32.215                : :Chapter 25
    02:06:18.696                : :Chapter 26
    02:07:25.388                : :Chapter 27
    Download - Mirror 1:
    Download - Mirror 2:
     
  2. Loading...


Share This Page