Google Drive Cruella.2021.1080p.DSNP.WEB-DL.DDP5.1.H.264-TOMMY

Discussion in 'Web-DL / Webrip | 1080p' started by DDLbase, May 28, 2021.

  1. DDLbase

    DDLbase Administrator Staff Member

    [​IMG]

    Rating: 7.1/10 based on 1220 user ratings

    Genres: Comedy, Crime

    A live-action prequel feature film following a young Cruella de Vil.

    [​IMG]
    Code:
    General
    Unique ID                   : 72679990842878002856852319600942913187 (0x36ADA835E26044C2502033A77AEE16A3)
    Complete name               : Cruella.2021.1080p.DSNP.WEB-DL.DDP5.1.H.264-TOMMY.mkv
    Format                      : Matroska
    Format version              : Version 4
    File size                   : 7.54 GiB
    Duration                    : 2 h 17 min
    Overall bit rate mode       : Variable
    Overall bit rate            : 7 863 kb/s
    Encoded date                : UTC 2021-05-28 07:14:27
    Writing application         : mkvmerge v19.0.0 ('Brave Captain') 64-bit
    Writing library             : libebml v1.3.5 + libmatroska v1.4.8
    
    Video
    ID                          : 1
    Format                      : AVC
    Format/Info                 : Advanced Video Codec
    Format profile              : [email protected]
    Format settings             : CABAC / 4 Ref Frames
    Format settings, CABAC      : Yes
    Format settings, Reference  : 4 frames
    Codec ID                    : V_MPEG4/ISO/AVC
    Duration                    : 2 h 17 min
    Bit rate mode               : Variable
    Bit rate                    : 7 091 kb/s
    Maximum bit rate            : 12.7 Mb/s
    Width                       : 1 920 pixels
    Height                      : 1 080 pixels
    Display aspect ratio        : 16:9
    Frame rate mode             : Constant
    Frame rate                  : 23.976 (24000/1001) FPS
    Color space                 : YUV
    Chroma subsampling          : 4:2:0
    Bit depth                   : 8 bits
    Scan type                   : Progressive
    Bits/(Pixel*Frame)          : 0.143
    Stream size                 : 6.80 GiB (90%)
    Default                     : Yes
    Forced                      : No
    Color range                 : Limited
    Color primaries             : BT.709
    Transfer characteristics    : BT.709
    Matrix coefficients         : BT.709
    
    Audio
    ID                          : 2
    Format                      : E-AC-3 JOC
    Format/Info                 : Enhanced AC-3 with Joint Object Coding
    Commercial name             : Dolby Digital Plus with Dolby Atmos
    Codec ID                    : A_EAC3
    Duration                    : 2 h 17 min
    Bit rate mode               : Constant
    Bit rate                    : 768 kb/s
    Channel(s)                  : 6 channels
    Channel layout              : L R C LFE Ls Rs
    Sampling rate               : 48.0 kHz
    Frame rate                  : 31.250 FPS (1536 SPF)
    Compression mode            : Lossy
    Stream size                 : 754 MiB (10%)
    Title                       : English
    Language                    : English
    Service kind                : Complete Main
    Default                     : Yes
    Forced                      : No
    Complexity index            : 16
    Number of dynamic objects   : 15
    Bed channel count           : 1 channel
    Bed channel configuration   : LFE
    
    Text #1
    ID                          : 3
    Format                      : UTF-8
    Codec ID                    : S_TEXT/UTF8
    Codec ID/Info               : UTF-8 Plain Text
    Duration                    : 2 h 13 min
    Bit rate                    : 41 b/s
    Count of elements           : 1532
    Stream size                 : 40.5 KiB (0%)
    Title                       : Chinese (Simplified)
    Language                    : Chinese
    Default                     : No
    Forced                      : No
    
    Text #2
    ID                          : 4
    Format                      : UTF-8
    Codec ID                    : S_TEXT/UTF8
    Codec ID/Info               : UTF-8 Plain Text
    Duration                    : 2 h 13 min
    Bit rate                    : 43 b/s
    Count of elements           : 1157
    Stream size                 : 42.2 KiB (0%)
    Title                       : Dansk
    Language                    : Danish
    Default                     : No
    Forced                      : No
    
    Text #3
    ID                          : 5
    Format                      : UTF-8
    Codec ID                    : S_TEXT/UTF8
    Codec ID/Info               : UTF-8 Plain Text
    Duration                    : 2 h 13 min
    Bit rate                    : 39 b/s
    Count of elements           : 1484
    Stream size                 : 38.8 KiB (0%)
    Title                       : Deutsch
    Language                    : German
    Default                     : No
    Forced                      : No
    
    Text #4
    ID                          : 6
    Format                      : UTF-8
    Codec ID                    : S_TEXT/UTF8
    Codec ID/Info               : UTF-8 Plain Text
    Duration                    : 2 h 13 min
    Bit rate                    : 54 b/s
    Count of elements           : 1584
    Stream size                 : 53.1 KiB (0%)
    Title                       : Deutsch (SDH)
    Language                    : German
    Default                     : No
    Forced                      : No
    
    Text #5
    ID                          : 7
    Format                      : UTF-8
    Codec ID                    : S_TEXT/UTF8
    Codec ID/Info               : UTF-8 Plain Text
    Duration                    : 2 h 11 min
    Bit rate                    : 51 b/s
    Count of elements           : 1902
    Stream size                 : 49.4 KiB (0%)
    Title                       : English (SDH)
    Language                    : English
    Default                     : No
    Forced                      : No
    
    Text #6
    ID                          : 8
    Format                      : UTF-8
    Codec ID                    : S_TEXT/UTF8
    Codec ID/Info               : UTF-8 Plain Text
    Duration                    : 2 h 13 min
    Bit rate                    : 40 b/s
    Count of elements           : 1483
    Stream size                 : 39.3 KiB (0%)
    Title                       : Español
    Language                    : Spanish
    Default                     : No
    Forced                      : No
    
    Text #7
    ID                          : 9
    Format                      : UTF-8
    Codec ID                    : S_TEXT/UTF8
    Codec ID/Info               : UTF-8 Plain Text
    Duration                    : 2 h 6 min
    Bit rate                    : 46 b/s
    Count of elements           : 1510
    Stream size                 : 43.3 KiB (0%)
    Title                       : Español (Latinoamericano)
    Language                    : Spanish
    Default                     : No
    Forced                      : No
    
    Text #8
    ID                          : 10
    Format                      : UTF-8
    Codec ID                    : S_TEXT/UTF8
    Codec ID/Info               : UTF-8 Plain Text
    Duration                    : 2 h 6 min
    Bit rate                    : 49 b/s
    Count of elements           : 1443
    Stream size                 : 45.5 KiB (0%)
    Title                       : Español (Latinoamericano) (SDH)
    Language                    : Spanish
    Default                     : No
    Forced                      : No
    
    Text #9
    ID                          : 11
    Format                      : UTF-8
    Codec ID                    : S_TEXT/UTF8
    Codec ID/Info               : UTF-8 Plain Text
    Duration                    : 2 h 13 min
    Bit rate                    : 41 b/s
    Count of elements           : 1451
    Stream size                 : 40.5 KiB (0%)
    Title                       : Français
    Language                    : French
    Default                     : No
    Forced                      : No
    
    Text #10
    ID                          : 12
    Format                      : UTF-8
    Codec ID                    : S_TEXT/UTF8
    Codec ID/Info               : UTF-8 Plain Text
    Duration                    : 2 h 13 min
    Bit rate                    : 49 b/s
    Count of elements           : 1530
    Stream size                 : 47.8 KiB (0%)
    Title                       : Français (Canadien)
    Language                    : French
    Default                     : No
    Forced                      : No
    
    Text #11
    ID                          : 13
    Format                      : UTF-8
    Codec ID                    : S_TEXT/UTF8
    Codec ID/Info               : UTF-8 Plain Text
    Duration                    : 2 h 11 min
    Bit rate                    : 52 b/s
    Count of elements           : 1774
    Stream size                 : 51.2 KiB (0%)
    Title                       : Français (SDH)
    Language                    : French
    Default                     : No
    Forced                      : No
    
    Text #12
    ID                          : 14
    Format                      : UTF-8
    Codec ID                    : S_TEXT/UTF8
    Codec ID/Info               : UTF-8 Plain Text
    Duration                    : 2 h 13 min
    Bit rate                    : 43 b/s
    Count of elements           : 1494
    Stream size                 : 42.0 KiB (0%)
    Title                       : Italiano
    Language                    : Italian
    Default                     : No
    Forced                      : No
    
    Text #13
    ID                          : 15
    Format                      : UTF-8
    Codec ID                    : S_TEXT/UTF8
    Codec ID/Info               : UTF-8 Plain Text
    Duration                    : 2 h 6 min
    Bit rate                    : 47 b/s
    Count of elements           : 1520
    Stream size                 : 44.4 KiB (0%)
    Title                       : Korean
    Language                    : Korean
    Default                     : No
    Forced                      : No
    
    Text #14
    ID                          : 16
    Format                      : UTF-8
    Codec ID                    : S_TEXT/UTF8
    Codec ID/Info               : UTF-8 Plain Text
    Duration                    : 2 h 13 min
    Bit rate                    : 37 b/s
    Count of elements           : 1255
    Stream size                 : 36.9 KiB (0%)
    Title                       : Nederlands
    Language                    : Dutch
    Default                     : No
    Forced                      : No
    
    Text #15
    ID                          : 17
    Format                      : UTF-8
    Codec ID                    : S_TEXT/UTF8
    Codec ID/Info               : UTF-8 Plain Text
    Duration                    : 2 h 13 min
    Bit rate                    : 39 b/s
    Count of elements           : 1510
    Stream size                 : 38.7 KiB (0%)
    Title                       : Norsk
    Language                    : Norwegian
    Default                     : No
    Forced                      : No
    
    Text #16
    ID                          : 18
    Format                      : UTF-8
    Codec ID                    : S_TEXT/UTF8
    Codec ID/Info               : UTF-8 Plain Text
    Duration                    : 2 h 13 min
    Bit rate                    : 40 b/s
    Count of elements           : 1485
    Stream size                 : 39.3 KiB (0%)
    Title                       : Polski
    Language                    : Polish
    Default                     : No
    Forced                      : No
    
    Text #17
    ID                          : 19
    Format                      : UTF-8
    Codec ID                    : S_TEXT/UTF8
    Codec ID/Info               : UTF-8 Plain Text
    Duration                    : 2 h 13 min
    Bit rate                    : 43 b/s
    Count of elements           : 1508
    Stream size                 : 42.6 KiB (0%)
    Title                       : Português
    Language                    : Portuguese
    Default                     : No
    Forced                      : No
    
    Text #18
    ID                          : 20
    Format                      : UTF-8
    Codec ID                    : S_TEXT/UTF8
    Codec ID/Info               : UTF-8 Plain Text
    Duration                    : 2 h 13 min
    Bit rate                    : 43 b/s
    Count of elements           : 1490
    Stream size                 : 42.4 KiB (0%)
    Title                       : Português (Brasil)
    Language                    : Portuguese
    Default                     : No
    Forced                      : No
    
    Text #19
    ID                          : 21
    Format                      : UTF-8
    Codec ID                    : S_TEXT/UTF8
    Codec ID/Info               : UTF-8 Plain Text
    Duration                    : 2 h 6 min
    Bit rate                    : 49 b/s
    Count of elements           : 1581
    Stream size                 : 46.4 KiB (0%)
    Title                       : Português (Brasil) (SDH)
    Language                    : Portuguese
    Default                     : No
    Forced                      : No
    
    Text #20
    ID                          : 22
    Format                      : UTF-8
    Codec ID                    : S_TEXT/UTF8
    Codec ID/Info               : UTF-8 Plain Text
    Duration                    : 2 h 13 min
    Bit rate                    : 44 b/s
    Count of elements           : 1505
    Stream size                 : 43.5 KiB (0%)
    Title                       : Suomi
    Language                    : Finnish
    Default                     : No
    Forced                      : No
    
    Text #21
    ID                          : 23
    Format                      : UTF-8
    Codec ID                    : S_TEXT/UTF8
    Codec ID/Info               : UTF-8 Plain Text
    Duration                    : 2 h 13 min
    Bit rate                    : 39 b/s
    Count of elements           : 1176
    Stream size                 : 38.8 KiB (0%)
    Title                       : Svenska
    Language                    : Swedish
    Default                     : No
    Forced                      : No
    Download - Mirror 1:
    Download - Mirror 2:
     
  2. Loading...


Share This Page