Google Drive Dark.Waters.2019.1080p.WEB-DL.H264.AC3-EVO

Discussion in 'Web-DL / Webrip | 1080p' started by DDLbase, Feb 17, 2020.

  1. DDLbase

    DDLbase Administrator Staff Member

    [​IMG]
    [​IMG]
    Code:
    General
    Unique ID                   : 250444256865957846513248212455112551649 (0xBC69CF32DBE2D18982F2BD2898F3ACE1)
    Complete name               : C:\Dark.Waters.2019.1080p.WEB-DL.H264.AC3-EVO.mkv
    Format                      : Matroska
    Format version              : Version 4 / Version 2
    File size                   : 4.43 GiB
    Duration                    : 2h 7mn
    Overall bit rate            : 4 993 Kbps
    Movie name                  : EVO
    Encoded date                : UTC 2020-02-17 15:23:15
    Writing application         : mkvmerge v6.7.0 ('Back to the Ground') 64bit built on Jan  8 2014 15:10:52
    Writing library             : libebml v1.3.0 + libmatroska v1.4.1
    
    Video
    ID                          : 2
    Format                      : AVC
    Format/Info                 : Advanced Video Codec
    Format profile              : [email protected]
    Format settings, CABAC      : Yes
    Format settings, ReFrames   : 5 frames
    Codec ID                    : V_MPEG4/ISO/AVC
    Duration                    : 2h 7mn
    Bit rate                    : 4 510 Kbps
    Width                       : 1 916 pixels
    Height                      : 796 pixels
    Display aspect ratio        : 2.40:1
    Frame rate mode             : Constant
    Frame rate                  : 23.976 fps
    Color space                 : YUV
    Chroma subsampling          : 4:2:0
    Bit depth                   : 8 bits
    Scan type                   : Progressive
    Bits/(Pixel*Frame)          : 0.123
    Stream size                 : 4.00 GiB (90%)
    Language                    : English
    Default                     : Yes
    Forced                      : No
    Color range                 : Limited
    Color primaries             : BT.709
    Transfer characteristics    : BT.709
    Matrix coefficients         : BT.709
    
    Audio
    ID                          : 1
    Format                      : AC-3
    Format/Info                 : Audio Coding 3
    Mode extension              : CM (complete main)
    Format settings, Endianness : Big
    Codec ID                    : A_AC3
    Duration                    : 2h 7mn
    Bit rate mode               : Constant
    Bit rate                    : 384 Kbps
    Channel(s)                  : 6 channels
    Channel positions           : Front: L C R, Side: L R, LFE
    Sampling rate               : 48.0 KHz
    Frame rate                  : 31.250 fps (1536 spf)
    Compression mode            : Lossy
    Stream size                 : 349 MiB (8%)
    Language                    : English
    Default                     : Yes
    Forced                      : No
    
    Menu
    00:00:00.000                : en:1
    00:10:09.192                : en:2
    00:18:19.432                : en:3
    00:28:21.450                : en:4
    00:36:49.958                : en:5
    00:44:46.892                : en:6
    00:50:18.055                : en:7
    01:04:18.395                : en:8
    01:08:47.080                : en:9
    01:17:24.639                : en:10
    01:23:52.150                : en:11
    01:25:33.000                : en:12
    01:31:41.993                : en:13
    01:36:15.975                : en:14
    01:38:56.759                : en:15
    01:42:27.301                : en:16
    01:45:12.173                : en:17
    01:50:33.077                : en:18
    02:00:17.578                : en:19
    02:02:03.557                : en:20
    Download:
     
  2. Loading...


Share This Page