Google Drive Day.Shift.2022.1080p.NF.WEB-DL.DDP5.1.Atmos.x264-CMRG

Discussion in 'Web-DL / Webrip | 1080p' started by DDLbase, Aug 13, 2022.

  1. DDLbase

    DDLbase Administrator Staff Member

    [​IMG]

    Rating: 6.2/10 based on 5,446 user ratings

    Genres: Action, Comedy, Fantasy

    A hard-working, blue-collar dad who just wants to provide a good life for his quick-witted 8-year-old daughter. His mundane San Fernando Valley pool cleaning job is a front for his real source of income: hunting and killing vampires.

    [​IMG]
    Code:
    General
    Unique ID                   : 116233656654832562355557175509788185282 (0x5771C9B9B1AEB35873BB8B325D64D2C2)
    Complete name               : Day.Shift.2022.1080p.NF.WEB-DL.DDP5.1.Atmos.x264-CMRG.mkv
    Format                      : Matroska
    Format version              : Version 4
    File size                   : 5.78 GiB
    Duration                    : 1 h 53 min
    Overall bit rate mode       : Variable
    Overall bit rate            : 7 296 kb/s
    Encoded date                : UTC 2022-08-12 07:00:23
    Writing application         : mkvmerge v61.0.0 ('So') 64-bit
    Writing library             : libebml v1.4.2 + libmatroska v1.6.4
    
    Video
    ID                          : 1
    Format                      : AVC
    Format/Info                 : Advanced Video Codec
    Format profile              : [email protected]
    Format settings             : CABAC / 3 Ref Frames
    Format settings, CABAC      : Yes
    Format settings, Reference  : 3 frames
    Codec ID                    : V_MPEG4/ISO/AVC
    Duration                    : 1 h 53 min
    Bit rate mode               : Variable
    Bit rate                    : 6 521 kb/s
    Nominal bit rate            : 7 500 kb/s
    Maximum bit rate            : 11.2 Mb/s
    Width                       : 1 920 pixels
    Height                      : 1 080 pixels
    Display aspect ratio        : 16:9
    Frame rate mode             : Constant
    Frame rate                  : 24.000 FPS
    Color space                 : YUV
    Chroma subsampling          : 4:2:0
    Bit depth                   : 8 bits
    Scan type                   : Progressive
    Bits/(Pixel*Frame)          : 0.131
    Stream size                 : 5.16 GiB (89%)
    Writing library             : x264 core 148 r2727 7d026e8
    Encoding settings           : cabac=1 / ref=3 / deblock=1:0:0 / analyse=0x1:0x111 / me=umh / subme=10 / psy=1 / psy_rd=1.00:0.00 / mixed_ref=1 / me_range=24 / chroma_me=1 / trellis=2 / 8x8dct=0 / cqm=0 / deadzone=21,11 / fast_pskip=1 / chroma_qp_offset=-2 / threads=8 / lookahead_threads=1 / sliced_threads=0 / nr=0 / decimate=1 / interlaced=0 / bluray_compat=0 / stitchable=1 / constrained_intra=0 / bframes=2 / b_pyramid=0 / b_adapt=2 / b_bias=0 / direct=3 / weightb=1 / open_gop=0 / weightp=2 / keyint=250 / keyint_min=24 / scenecut=0 / intra_refresh=0 / rc_lookahead=48 / rc=2pass / mbtree=1 / bitrate=7500 / ratetol=1.0 / qcomp=0.50 / qpmin=6 / qpmax=51 / qpstep=4 / cplxblur=20.0 / qblur=0.5 / vbv_maxrate=11250 / vbv_bufsize=15000 / nal_hrd=vbr / filler=0 / ip_ratio=1.40 / aq=1:1.00
    Language                    : English
    Default                     : Yes
    Forced                      : No
    
    Audio
    ID                          : 2
    Format                      : E-AC-3 JOC
    Format/Info                 : Enhanced AC-3 with Joint Object Coding
    Commercial name             : Dolby Digital Plus with Dolby Atmos
    Codec ID                    : A_EAC3
    Duration                    : 1 h 53 min
    Bit rate mode               : Constant
    Bit rate                    : 768 kb/s
    Channel(s)                  : 6 channels
    Channel layout              : L R C LFE Ls Rs
    Sampling rate               : 48.0 kHz
    Frame rate                  : 31.250 FPS (1536 SPF)
    Compression mode            : Lossy
    Stream size                 : 623 MiB (11%)
    Language                    : English
    Service kind                : Complete Main
    Default                     : Yes
    Forced                      : No
    Complexity index            : 16
    Number of dynamic objects   : 15
    Bed channel count           : 1 channel
    Bed channel configuration   : LFE
    
    Text #1
    ID                          : 3
    Format                      : UTF-8
    Codec ID                    : S_TEXT/UTF8
    Codec ID/Info               : UTF-8 Plain Text
    Duration                    : 1 h 51 min
    Bit rate                    : 75 b/s
    Count of elements           : 1972
    Stream size                 : 61.8 KiB (0%)
    Title                       : SDH
    Language                    : English
    Default                     : No
    Forced                      : No
    
    Text #2
    ID                          : 4
    Format                      : UTF-8
    Codec ID                    : S_TEXT/UTF8
    Codec ID/Info               : UTF-8 Plain Text
    Duration                    : 1 h 21 min
    Bit rate                    : 0 b/s
    Count of elements           : 9
    Stream size                 : 191 Bytes (0%)
    Title                       : Forced
    Language                    : English
    Default                     : Yes
    Forced                      : Yes
    
    Text #3
    ID                          : 5
    Format                      : UTF-8
    Codec ID                    : S_TEXT/UTF8
    Codec ID/Info               : UTF-8 Plain Text
    Duration                    : 1 h 47 min
    Bit rate                    : 68 b/s
    Count of elements           : 1576
    Stream size                 : 54.0 KiB (0%)
    Language                    : English
    Default                     : No
    Forced                      : No
    
    Text #4
    ID                          : 6
    Format                      : UTF-8
    Codec ID                    : S_TEXT/UTF8
    Codec ID/Info               : UTF-8 Plain Text
    Duration                    : 1 h 50 min
    Bit rate                    : 107 b/s
    Count of elements           : 1408
    Stream size                 : 87.6 KiB (0%)
    Language                    : Arabic
    Default                     : No
    Forced                      : No
    
    Text #5
    ID                          : 7
    Format                      : UTF-8
    Codec ID                    : S_TEXT/UTF8
    Codec ID/Info               : UTF-8 Plain Text
    Duration                    : 1 h 50 min
    Bit rate                    : 48 b/s
    Count of elements           : 1440
    Stream size                 : 39.5 KiB (0%)
    Language                    : Catalan
    Default                     : No
    Forced                      : No
    
    Text #6
    ID                          : 8
    Format                      : UTF-8
    Codec ID                    : S_TEXT/UTF8
    Codec ID/Info               : UTF-8 Plain Text
    Duration                    : 1 h 50 min
    Bit rate                    : 47 b/s
    Count of elements           : 1312
    Stream size                 : 38.2 KiB (0%)
    Language                    : Czech
    Default                     : No
    Forced                      : No
    
    Text #7
    ID                          : 9
    Format                      : UTF-8
    Codec ID                    : S_TEXT/UTF8
    Codec ID/Info               : UTF-8 Plain Text
    Duration                    : 1 h 49 min
    Bit rate                    : 50 b/s
    Count of elements           : 1386
    Stream size                 : 40.4 KiB (0%)
    Language                    : Danish
    Default                     : No
    Forced                      : No
    
    Text #8
    ID                          : 10
    Format                      : UTF-8
    Codec ID                    : S_TEXT/UTF8
    Codec ID/Info               : UTF-8 Plain Text
    Duration                    : 1 h 45 min
    Bit rate                    : 74 b/s
    Count of elements           : 1859
    Stream size                 : 57.5 KiB (0%)
    Title                       : SDH
    Language                    : German
    Default                     : No
    Forced                      : No
    
    Text #9
    ID                          : 11
    Format                      : UTF-8
    Codec ID                    : S_TEXT/UTF8
    Codec ID/Info               : UTF-8 Plain Text
    Duration                    : 1 h 50 min
    Bit rate                    : 51 b/s
    Count of elements           : 1381
    Stream size                 : 42.0 KiB (0%)
    Language                    : German
    Default                     : No
    Forced                      : No
    
    Text #10
    ID                          : 12
    Format                      : UTF-8
    Codec ID                    : S_TEXT/UTF8
    Codec ID/Info               : UTF-8 Plain Text
    Duration                    : 1 h 50 min
    Bit rate                    : 86 b/s
    Count of elements           : 1413
    Stream size                 : 70.2 KiB (0%)
    Language                    : Greek
    Default                     : No
    Forced                      : No
    
    Text #11
    ID                          : 13
    Format                      : UTF-8
    Codec ID                    : S_TEXT/UTF8
    Codec ID/Info               : UTF-8 Plain Text
    Duration                    : 1 h 51 min
    Bit rate                    : 64 b/s
    Count of elements           : 1770
    Stream size                 : 52.4 KiB (0%)
    Title                       : SDH
    Language                    : Spanish
    Default                     : No
    Forced                      : No
    
    Text #12
    ID                          : 14
    Format                      : UTF-8
    Codec ID                    : S_TEXT/UTF8
    Codec ID/Info               : UTF-8 Plain Text
    Duration                    : 1 h 43 min
    Bit rate                    : 59 b/s
    Count of elements           : 1398
    Stream size                 : 45.3 KiB (0%)
    Language                    : Spanish
    Default                     : No
    Forced                      : No
    
    Text #13
    ID                          : 15
    Format                      : UTF-8
    Codec ID                    : S_TEXT/UTF8
    Codec ID/Info               : UTF-8 Plain Text
    Duration                    : 1 h 50 min
    Bit rate                    : 51 b/s
    Count of elements           : 1400
    Stream size                 : 42.0 KiB (0%)
    Language                    : Basque
    Default                     : No
    Forced                      : No
    
    Text #14
    ID                          : 16
    Format                      : UTF-8
    Codec ID                    : S_TEXT/UTF8
    Codec ID/Info               : UTF-8 Plain Text
    Duration                    : 1 h 50 min
    Bit rate                    : 44 b/s
    Count of elements           : 1384
    Stream size                 : 35.9 KiB (0%)
    Language                    : Finnish
    Default                     : No
    Forced                      : No
    
    Text #15
    ID                          : 17
    Format                      : UTF-8
    Codec ID                    : S_TEXT/UTF8
    Codec ID/Info               : UTF-8 Plain Text
    Duration                    : 1 h 49 min
    Bit rate                    : 55 b/s
    Count of elements           : 1380
    Stream size                 : 44.5 KiB (0%)
    Language                    : fil
    Default                     : No
    Forced                      : No
    
    Text #16
    ID                          : 18
    Format                      : UTF-8
    Codec ID                    : S_TEXT/UTF8
    Codec ID/Info               : UTF-8 Plain Text
    Duration                    : 1 h 51 min
    Bit rate                    : 74 b/s
    Count of elements           : 1872
    Stream size                 : 60.6 KiB (0%)
    Title                       : SDH
    Language                    : French
    Default                     : No
    Forced                      : No
    
    Text #17
    ID                          : 19
    Format                      : UTF-8
    Codec ID                    : S_TEXT/UTF8
    Codec ID/Info               : UTF-8 Plain Text
    Duration                    : 1 h 50 min
    Bit rate                    : 48 b/s
    Count of elements           : 1365
    Stream size                 : 39.1 KiB (0%)
    Language                    : French
    Default                     : No
    Forced                      : No
    
    Text #18
    ID                          : 20
    Format                      : UTF-8
    Codec ID                    : S_TEXT/UTF8
    Codec ID/Info               : UTF-8 Plain Text
    Duration                    : 1 h 50 min
    Bit rate                    : 49 b/s
    Count of elements           : 1410
    Stream size                 : 39.9 KiB (0%)
    Language                    : Galician
    Default                     : No
    Forced                      : No
    
    Text #19
    ID                          : 21
    Format                      : UTF-8
    Codec ID                    : S_TEXT/UTF8
    Codec ID/Info               : UTF-8 Plain Text
    Duration                    : 1 h 50 min
    Bit rate                    : 82 b/s
    Count of elements           : 1389
    Stream size                 : 66.7 KiB (0%)
    Language                    : Hebrew
    Default                     : No
    Forced                      : No
    
    Text #20
    ID                          : 22
    Format                      : UTF-8
    Codec ID                    : S_TEXT/UTF8
    Codec ID/Info               : UTF-8 Plain Text
    Duration                    : 1 h 50 min
    Bit rate                    : 49 b/s
    Count of elements           : 1405
    Stream size                 : 40.1 KiB (0%)
    Language                    : Croatian
    Default                     : No
    Forced                      : No
    
    Text #21
    ID                          : 23
    Format                      : UTF-8
    Codec ID                    : S_TEXT/UTF8
    Codec ID/Info               : UTF-8 Plain Text
    Duration                    : 1 h 50 min
    Bit rate                    : 49 b/s
    Count of elements           : 1352
    Stream size                 : 40.4 KiB (0%)
    Language                    : Hungarian
    Default                     : No
    Forced                      : No
    
    Text #22
    ID                          : 24
    Format                      : UTF-8
    Codec ID                    : S_TEXT/UTF8
    Codec ID/Info               : UTF-8 Plain Text
    Duration                    : 1 h 50 min
    Bit rate                    : 47 b/s
    Count of elements           : 1389
    Stream size                 : 39.0 KiB (0%)
    Language                    : Indonesian
    Default                     : No
    Forced                      : No
    
    Text #23
    ID                          : 25
    Format                      : UTF-8
    Codec ID                    : S_TEXT/UTF8
    Codec ID/Info               : UTF-8 Plain Text
    Duration                    : 1 h 51 min
    Bit rate                    : 69 b/s
    Count of elements           : 1883
    Stream size                 : 56.8 KiB (0%)
    Title                       : SDH
    Language                    : Italian
    Default                     : No
    Forced                      : No
    
    Text #24
    ID                          : 26
    Format                      : UTF-8
    Codec ID                    : S_TEXT/UTF8
    Codec ID/Info               : UTF-8 Plain Text
    Duration                    : 1 h 50 min
    Bit rate                    : 50 b/s
    Count of elements           : 1385
    Stream size                 : 41.2 KiB (0%)
    Language                    : Italian
    Default                     : No
    Forced                      : No
    
    Text #25
    ID                          : 27
    Format                      : UTF-8
    Codec ID                    : S_TEXT/UTF8
    Codec ID/Info               : UTF-8 Plain Text
    Duration                    : 1 h 50 min
    Bit rate                    : 54 b/s
    Count of elements           : 1470
    Stream size                 : 44.0 KiB (0%)
    Language                    : Japanese
    Default                     : No
    Forced                      : No
    
    Text #26
    ID                          : 28
    Format                      : UTF-8
    Codec ID                    : S_TEXT/UTF8
    Codec ID/Info               : UTF-8 Plain Text
    Duration                    : 1 h 50 min
    Bit rate                    : 66 b/s
    Count of elements           : 1402
    Stream size                 : 54.3 KiB (0%)
    Language                    : Korean
    Default                     : No
    Forced                      : No
    
    Text #27
    ID                          : 29
    Format                      : UTF-8
    Codec ID                    : S_TEXT/UTF8
    Codec ID/Info               : UTF-8 Plain Text
    Duration                    : 1 h 50 min
    Bit rate                    : 50 b/s
    Count of elements           : 1386
    Stream size                 : 41.0 KiB (0%)
    Language                    : Malay
    Default                     : No
    Forced                      : No
    
    Text #28
    ID                          : 30
    Format                      : UTF-8
    Codec ID                    : S_TEXT/UTF8
    Codec ID/Info               : UTF-8 Plain Text
    Duration                    : 1 h 50 min
    Bit rate                    : 48 b/s
    Count of elements           : 1334
    Stream size                 : 39.4 KiB (0%)
    Language                    : Norwegian Bokmal
    Default                     : No
    Forced                      : No
    
    Text #29
    ID                          : 31
    Format                      : UTF-8
    Codec ID                    : S_TEXT/UTF8
    Codec ID/Info               : UTF-8 Plain Text
    Duration                    : 1 h 50 min
    Bit rate                    : 47 b/s
    Count of elements           : 1305
    Stream size                 : 38.2 KiB (0%)
    Language                    : Dutch
    Default                     : No
    Forced                      : No
    
    Text #30
    ID                          : 32
    Format                      : UTF-8
    Codec ID                    : S_TEXT/UTF8
    Codec ID/Info               : UTF-8 Plain Text
    Duration                    : 1 h 50 min
    Bit rate                    : 47 b/s
    Count of elements           : 1378
    Stream size                 : 38.2 KiB (0%)
    Language                    : Polish
    Default                     : No
    Forced                      : No
    
    Text #31
    ID                          : 33
    Format                      : UTF-8
    Codec ID                    : S_TEXT/UTF8
    Codec ID/Info               : UTF-8 Plain Text
    Duration                    : 1 h 50 min
    Bit rate                    : 52 b/s
    Count of elements           : 1408
    Stream size                 : 42.6 KiB (0%)
    Language                    : Portuguese
    Default                     : No
    Forced                      : No
    
    Text #32
    ID                          : 34
    Format                      : UTF-8
    Codec ID                    : S_TEXT/UTF8
    Codec ID/Info               : UTF-8 Plain Text
    Duration                    : 1 h 51 min
    Bit rate                    : 69 b/s
    Count of elements           : 1807
    Stream size                 : 56.6 KiB (0%)
    Title                       : Brazilian SDH
    Language                    : Portuguese
    Default                     : No
    Forced                      : No
    
    Text #33
    ID                          : 35
    Format                      : UTF-8
    Codec ID                    : S_TEXT/UTF8
    Codec ID/Info               : UTF-8 Plain Text
    Duration                    : 1 h 43 min
    Bit rate                    : 62 b/s
    Count of elements           : 1407
    Stream size                 : 47.7 KiB (0%)
    Title                       : Brazilian
    Language                    : Portuguese
    Default                     : No
    Forced                      : No
    
    Text #34
    ID                          : 36
    Format                      : UTF-8
    Codec ID                    : S_TEXT/UTF8
    Codec ID/Info               : UTF-8 Plain Text
    Duration                    : 1 h 50 min
    Bit rate                    : 57 b/s
    Count of elements           : 1385
    Stream size                 : 46.9 KiB (0%)
    Language                    : Romanian
    Default                     : No
    Forced                      : No
    
    Text #35
    ID                          : 37
    Format                      : UTF-8
    Codec ID                    : S_TEXT/UTF8
    Codec ID/Info               : UTF-8 Plain Text
    Duration                    : 1 h 50 min
    Bit rate                    : 81 b/s
    Count of elements           : 1404
    Stream size                 : 66.3 KiB (0%)
    Language                    : Russian
    Default                     : No
    Forced                      : No
    
    Text #36
    ID                          : 38
    Format                      : UTF-8
    Codec ID                    : S_TEXT/UTF8
    Codec ID/Info               : UTF-8 Plain Text
    Duration                    : 1 h 50 min
    Bit rate                    : 51 b/s
    Count of elements           : 1305
    Stream size                 : 41.9 KiB (0%)
    Language                    : Swedish
    Default                     : No
    Forced                      : No
    
    Text #37
    ID                          : 39
    Format                      : UTF-8
    Codec ID                    : S_TEXT/UTF8
    Codec ID/Info               : UTF-8 Plain Text
    Duration                    : 1 h 50 min
    Bit rate                    : 141 b/s
    Count of elements           : 1420
    Stream size                 : 115 KiB (0%)
    Language                    : Thai
    Default                     : No
    Forced                      : No
    
    Text #38
    ID                          : 40
    Format                      : UTF-8
    Codec ID                    : S_TEXT/UTF8
    Codec ID/Info               : UTF-8 Plain Text
    Duration                    : 1 h 50 min
    Bit rate                    : 50 b/s
    Count of elements           : 1346
    Stream size                 : 41.3 KiB (0%)
    Language                    : Turkish
    Default                     : No
    Forced                      : No
    
    Text #39
    ID                          : 41
    Format                      : UTF-8
    Codec ID                    : S_TEXT/UTF8
    Codec ID/Info               : UTF-8 Plain Text
    Duration                    : 1 h 50 min
    Bit rate                    : 86 b/s
    Count of elements           : 1402
    Stream size                 : 70.0 KiB (0%)
    Language                    : Ukrainian
    Default                     : No
    Forced                      : No
    
    Text #40
    ID                          : 42
    Format                      : UTF-8
    Codec ID                    : S_TEXT/UTF8
    Codec ID/Info               : UTF-8 Plain Text
    Duration                    : 1 h 50 min
    Bit rate                    : 72 b/s
    Count of elements           : 1388
    Stream size                 : 59.3 KiB (0%)
    Language                    : Vietnamese
    Default                     : No
    Forced                      : No
    
    Text #41
    ID                          : 43
    Format                      : UTF-8
    Codec ID                    : S_TEXT/UTF8
    Codec ID/Info               : UTF-8 Plain Text
    Duration                    : 1 h 50 min
    Bit rate                    : 62 b/s
    Count of elements           : 1392
    Stream size                 : 50.4 KiB (0%)
    Title                       : Simplified
    Language                    : Chinese
    Default                     : No
    Forced                      : No
    
    Text #42
    ID                          : 44
    Format                      : UTF-8
    Codec ID                    : S_TEXT/UTF8
    Codec ID/Info               : UTF-8 Plain Text
    Duration                    : 1 h 50 min
    Bit rate                    : 60 b/s
    Count of elements           : 1391
    Stream size                 : 48.9 KiB (0%)
    Title                       : Traditional
    Language                    : Chinese
    Default                     : No
    Forced                      : No
    Download - Mirror 1:
    Download - Mirror 2:
     
  2. Loading...


Share This Page