Google Drive Daylight.1996.REMASTERED.1080p.BluRay.x264-GUACAMOLE

Discussion in 'BDRip | 720p/1080p' started by DDLbase, May 17, 2021.

  1. DDLbase

    DDLbase Administrator Staff Member

    [​IMG]

    Rating: 5.9/10 based on 67,951 user ratings

    Genres: Action, Adventure, Drama, Thriller

    Disaster in a New York tunnel as explosions collapse both ends of it. One hero tries to help the people inside find their way to safety.

    [​IMG]
    Code:
    General
    Unique ID                   : 137370176610118788086358071176599551696 (0x6758889DEFBBA7654AB5B0FB0B9DBED0)
    Complete name               : Daylight.1996.REMASTERED.1080p.BluRay.x264-GUACAMOLE.mkv
    Format                      : Matroska
    Format version              : Version 4
    File size                   : 17.9 GiB
    Duration                    : 1 h 54 min
    Overall bit rate mode       : Variable
    Overall bit rate            : 22.4 Mb/s
    Encoded date                : UTC 2021-05-14 18:39:05
    Writing application         : mkvmerge v51.0.0 ('I Wish') 64-bit
    Writing library             : libebml v1.4.0 + libmatroska v1.6.2
    
    Video
    ID                          : 1
    Format                      : AVC
    Format/Info                 : Advanced Video Codec
    Format profile              : [email protected]
    Format settings             : CABAC / 4 Ref Frames
    Format settings, CABAC      : Yes
    Format settings, Reference  : 4 frames
    Codec ID                    : V_MPEG4/ISO/AVC
    Duration                    : 1 h 54 min
    Bit rate                    : 17.4 Mb/s
    Width                       : 1 920 pixels
    Height                      : 1 040 pixels
    Display aspect ratio        : 1.85:1
    Frame rate mode             : Constant
    Frame rate                  : 23.976 (24000/1001) FPS
    Color space                 : YUV
    Chroma subsampling          : 4:2:0
    Bit depth                   : 8 bits
    Scan type                   : Progressive
    Bits/(Pixel*Frame)          : 0.363
    Stream size                 : 13.9 GiB (78%)
    Writing library             : x264 core 163 r3059 b684ebe
    Encoding settings           : cabac=1 / ref=4 / deblock=1:-3:-3 / analyse=0x3:0x133 / me=umh / subme=9 / psy=1 / psy_rd=1.00:0.00 / mixed_ref=1 / me_range=16 / chroma_me=1 / trellis=2 / 8x8dct=1 / cqm=0 / deadzone=21,11 / fast_pskip=0 / chroma_qp_offset=-2 / threads=24 / lookahead_threads=2 / sliced_threads=0 / nr=0 / decimate=1 / interlaced=0 / bluray_compat=0 / constrained_intra=0 / bframes=3 / b_pyramid=2 / b_adapt=2 / b_bias=0 / direct=3 / weightb=1 / open_gop=0 / weightp=2 / keyint=250 / keyint_min=23 / scenecut=40 / intra_refresh=0 / rc_lookahead=60 / rc=crf / mbtree=1 / crf=19.9 / qcomp=0.60 / qpmin=0 / qpmax=69 / qpstep=4 / ip_ratio=1.40 / aq=3:0.60
    Default                     : Yes
    Forced                      : No
    Color range                 : Limited
    Matrix coefficients         : BT.709
    
    Audio #1
    ID                          : 2
    Format                      : MLP FBA 16-ch
    Format/Info                 : Meridian Lossless Packing FBA with 16-channel presentation
    Commercial name             : Dolby TrueHD with Dolby Atmos
    Codec ID                    : A_TRUEHD
    Duration                    : 1 h 54 min
    Bit rate mode               : Variable
    Bit rate                    : 4 130 kb/s
    Maximum bit rate            : 6 657 kb/s
    Channel(s)                  : 8 channels
    Channel layout              : L R C LFE Ls Rs Lb Rb
    Sampling rate               : 48.0 kHz
    Frame rate                  : 1 200.000 FPS (40 SPF)
    Compression mode            : Lossless
    Delay relative to video     : 417 ms
    Stream size                 : 3.30 GiB (18%)
    Language                    : English
    Default                     : Yes
    Forced                      : No
    Number of dynamic objects   : 13
    Bed channel count           : 1 channel
    Bed channel configuration   : LFE
    
    Audio #2
    ID                          : 3
    Format                      : AC-3
    Format/Info                 : Audio Coding 3
    Commercial name             : Dolby Digital
    Codec ID                    : A_AC3
    Duration                    : 1 h 54 min
    Bit rate mode               : Constant
    Bit rate                    : 640 kb/s
    Channel(s)                  : 6 channels
    Channel layout              : L R C LFE Ls Rs
    Sampling rate               : 48.0 kHz
    Frame rate                  : 31.250 FPS (1536 SPF)
    Compression mode            : Lossy
    Delay relative to video     : 417 ms
    Stream size                 : 524 MiB (3%)
    Language                    : English
    Service kind                : Complete Main
    Default                     : No
    Forced                      : No
    
    Audio #3
    ID                          : 4
    Format                      : AAC LC
    Format/Info                 : Advanced Audio Codec Low Complexity
    Codec ID                    : A_AAC-2
    Duration                    : 1 h 54 min
    Bit rate                    : 96.0 kb/s
    Channel(s)                  : 2 channels
    Channel layout              : L R
    Sampling rate               : 48.0 kHz
    Frame rate                  : 46.875 FPS (1024 SPF)
    Compression mode            : Lossy
    Delay relative to video     : 9 ms
    Stream size                 : 79.4 MiB (0%)
    Language                    : English
    Default                     : No
    Forced                      : No
    
    Text #1
    ID                          : 5
    Format                      : PGS
    Muxing mode                 : zlib
    Codec ID                    : S_HDMV/PGS
    Codec ID/Info               : Picture based subtitle format used on BDs/HD-DVDs
    Duration                    : 1 h 46 min
    Bit rate                    : 36.8 kb/s
    Count of elements           : 2426
    Stream size                 : 28.1 MiB (0%)
    Title                       : Vobsubs
    Language                    : English
    Default                     : No
    Forced                      : No
    
    Text #2
    ID                          : 6
    Format                      : PGS
    Muxing mode                 : zlib
    Codec ID                    : S_HDMV/PGS
    Codec ID/Info               : Picture based subtitle format used on BDs/HD-DVDs
    Duration                    : 1 h 51 min
    Bit rate                    : 38.4 kb/s
    Count of elements           : 2670
    Stream size                 : 30.7 MiB (0%)
    Title                       : SDH
    Language                    : English
    Default                     : No
    Forced                      : No
    
    Text #3
    ID                          : 7
    Format                      : PGS
    Muxing mode                 : zlib
    Codec ID                    : S_HDMV/PGS
    Codec ID/Info               : Picture based subtitle format used on BDs/HD-DVDs
    Duration                    : 1 h 54 min
    Bit rate                    : 60.2 kb/s
    Count of elements           : 3150
    Stream size                 : 49.2 MiB (0%)
    Title                       : Commentary
    Language                    : English
    Default                     : No
    Forced                      : No
    
    Text #4
    ID                          : 8
    Format                      : PGS
    Muxing mode                 : zlib
    Codec ID                    : S_HDMV/PGS
    Codec ID/Info               : Picture based subtitle format used on BDs/HD-DVDs
    Duration                    : 1 h 46 min
    Bit rate                    : 38.1 kb/s
    Count of elements           : 2434
    Stream size                 : 29.1 MiB (0%)
    Title                       : Vobsubs
    Language                    : German
    Default                     : No
    Forced                      : No
    
    Text #5
    ID                          : 9
    Format                      : PGS
    Muxing mode                 : zlib
    Codec ID                    : S_HDMV/PGS
    Codec ID/Info               : Picture based subtitle format used on BDs/HD-DVDs
    Duration                    : 1 h 46 min
    Bit rate                    : 40.1 kb/s
    Count of elements           : 2552
    Stream size                 : 30.6 MiB (0%)
    Title                       : SDH
    Language                    : German
    Default                     : No
    Forced                      : No
    
    Text #6
    ID                          : 10
    Format                      : PGS
    Muxing mode                 : zlib
    Codec ID                    : S_HDMV/PGS
    Codec ID/Info               : Picture based subtitle format used on BDs/HD-DVDs
    Duration                    : 1 h 54 min
    Bit rate                    : 68.0 kb/s
    Count of elements           : 3178
    Stream size                 : 55.6 MiB (0%)
    Title                       : Commentary
    Language                    : German
    Default                     : No
    Forced                      : No
    
    Text #7
    ID                          : 11
    Format                      : PGS
    Muxing mode                 : zlib
    Codec ID                    : S_HDMV/PGS
    Codec ID/Info               : Picture based subtitle format used on BDs/HD-DVDs
    Duration                    : 36 min 53 s
    Bit rate                    : 806 b/s
    Count of elements           : 24
    Stream size                 : 218 KiB (0%)
    Title                       : Forced
    Language                    : German
    Default                     : No
    Forced                      : No
    
    Menu
    00:00:00.000                : en:00:00:00.000
    00:04:26.933                : en:00:04:26.933
    00:06:52.120                : en:00:06:52.120
    00:10:29.671                : en:00:10:29.671
    00:14:34.499                : en:00:14:34.499
    00:16:57.433                : en:00:16:57.433
    00:21:38.506                : en:00:21:38.506
    00:24:15.954                : en:00:24:15.954
    00:27:34.570                : en:00:27:34.570
    00:34:10.924                : en:00:34:10.924
    00:40:00.773                : en:00:40:00.773
    00:45:21.135                : en:00:45:21.135
    00:50:40.704                : en:00:50:40.704
    00:54:51.205                : en:00:54:51.205
    01:01:12.878                : en:01:01:12.878
    01:08:06.582                : en:01:08:06.582
    01:13:17.852                : en:01:13:17.852
    01:17:53.752                : en:01:17:53.752
    01:22:24.064                : en:01:22:24.064
    01:25:49.603                : en:01:25:49.603
    01:30:55.992                : en:01:30:55.992
    01:35:22.967                : en:01:35:22.967
    01:38:16.974                : en:01:38:16.974
    01:42:14.295                : en:01:42:14.295
    01:48:33.799                : en:01:48:33.799
    Download - Mirror 1:
    Download - Mirror 2:
     
  2. Loading...


Share This Page