Google Drive Deadfall.2012.LIMITED.1080p.BluRay.x264-SPARKS

Discussion in 'BDRip | 720p/1080p' started by DDLbase, May 30, 2021.

  1. DDLbase

    DDLbase Administrator Staff Member

    [​IMG]

    Rating: 6.3/10 based on 38,356 user ratings

    Genres: Crime, Drama, Thriller

    Two siblings decide to fend for themselves in the wake of a botched casino heist and their unlikely reunion during another family’s Thanksgiving celebration.

    [​IMG]
    Code:
    General
    Complete name               : Deadfall.2012.LIMITED.1080p.BluRay.x264-SPARKS.mkv
    Format                      : Matroska
    Format version              : Version 2
    File size                   : 6.55 GiB
    Duration                    : 1 h 34 min
    Overall bit rate            : 9 915 kb/s
    Writing application         : mkvmerge v4.1.1 ('Bouncin' Back') built on Jul  3 2010 22:54:08
    Writing library             : libebml v1.0.0 + libmatroska v1.0
    
    Video
    ID                          : 1
    Format                      : AVC
    Format/Info                 : Advanced Video Codec
    Format profile              : [email protected]
    Format settings             : CABAC / 5 Ref Frames
    Format settings, CABAC      : Yes
    Format settings, Reference  : 5 frames
    Codec ID                    : V_MPEG4/ISO/AVC
    Duration                    : 1 h 34 min
    Bit rate                    : 8 403 kb/s
    Width                       : 1 920 pixels
    Height                      : 816 pixels
    Display aspect ratio        : 2.35:1
    Frame rate mode             : Constant
    Frame rate                  : 23.976 (24000/1001) FPS
    Color space                 : YUV
    Chroma subsampling          : 4:2:0
    Bit depth                   : 8 bits
    Scan type                   : Progressive
    Bits/(Pixel*Frame)          : 0.224
    Stream size                 : 5.43 GiB (83%)
    Writing library             : x264 core 129 r2245 bc13772
    Encoding settings           : cabac=1 / ref=5 / deblock=1:0:0 / analyse=0x3:0x133 / me=umh / subme=7 / psy=1 / psy_rd=1.00:0.00 / mixed_ref=1 / me_range=16 / chroma_me=1 / trellis=1 / 8x8dct=1 / cqm=0 / deadzone=21,11 / fast_pskip=0 / chroma_qp_offset=-2 / threads=12 / lookahead_threads=2 / sliced_threads=0 / nr=0 / decimate=1 / interlaced=0 / bluray_compat=0 / constrained_intra=0 / bframes=3 / b_pyramid=2 / b_adapt=1 / b_bias=0 / direct=1 / weightb=1 / open_gop=0 / weightp=2 / keyint=250 / keyint_min=23 / scenecut=40 / intra_refresh=0 / rc_lookahead=40 / rc=2pass / mbtree=1 / bitrate=8403 / ratetol=1.0 / qcomp=0.60 / qpmin=0 / qpmax=69 / qpstep=4 / cplxblur=20.0 / qblur=0.5 / ip_ratio=1.40 / aq=1:1.00
    Language                    : English
    Default                     : Yes
    Forced                      : No
    
    Audio
    ID                          : 2
    Format                      : DTS
    Format/Info                 : Digital Theater Systems
    Codec ID                    : A_DTS
    Duration                    : 1 h 34 min
    Bit rate mode               : Constant
    Bit rate                    : 1 509 kb/s
    Channel(s)                  : 6 channels
    Channel layout              : C L R Ls Rs LFE
    Sampling rate               : 48.0 kHz
    Frame rate                  : 93.750 FPS (512 SPF)
    Bit depth                   : 24 bits
    Compression mode            : Lossy
    Stream size                 : 1 021 MiB (15%)
    Title                       : DTS
    Language                    : English
    Default                     : Yes
    Forced                      : No
    
    Text
    ID                          : 3
    Format                      : UTF-8
    Codec ID                    : S_TEXT/UTF8
    Codec ID/Info               : UTF-8 Plain Text
    Title                       : English
    Language                    : English
    Default                     : No
    Forced                      : No
    
    Menu
    00:00:00.000                : en:00:00:00.000
    00:08:18.581                : en:00:08:18.581
    00:18:18.931                : en:00:18:18.931
    00:28:45.474                : en:00:28:45.474
    00:35:57.697                : en:00:35:57.697
    00:44:25.663                : en:00:44:25.663
    00:53:32.793                : en:00:53:32.793
    01:02:49.891                : en:01:02:49.891
    01:09:32.168                : en:01:09:32.168
    01:17:17.967                : en:01:17:17.967
    01:22:01.834                : en:01:22:01.834
    01:28:27.719                : en:01:28:27.719
    Download - Mirror 1:
    Download - Mirror 2:
     
  2. Loading...


Share This Page