Google Drive Deep.Cover.1992.1080p.BluRay.FLAC.2.0.x264-WMD

Discussion in 'BDRip | 720p/1080p' started by DDLbase, Jul 18, 2021.

  1. DDLbase

    DDLbase Administrator Staff Member

    [​IMG]

    Rating: 6.9/10 based on 9.418 user ratings

    Genres: Action, Crime, Thriller

    A uniformed cop is recruited by a drug enforcement agent to infiltrate a drug smuggling ring looking to expand its operation.

    [​IMG]
    Code:
    General
    Unique ID                   : 339512660079369348855184926612589998029 (0xFF6BC285D3C89A8275F77432966D6FCD)
    Complete name               : Deep.Cover.1992.1080p.BluRay.FLAC.2.0.x264-WMD.mkv
    Format                      : Matroska
    Format version              : Version 4
    File size                   : 13.2 GiB
    Duration                    : 1 h 47 min
    Overall bit rate mode       : Variable
    Overall bit rate            : 17.5 Mb/s
    Movie name                  : Deep.Cover.1992.1080p.BluRay.FLAC.2.0.x264-WMD
    Encoded date                : UTC 2021-07-15 02:56:59
    Writing application         : mkvmerge v59.0.0 ('Shining Star') 64-bit
    Writing library             : libebml v1.4.2 + libmatroska v1.6.4
    IMDB                        : tt0104073
    TMDB                        : movie/20676
    
    Video
    ID                          : 1
    Format                      : AVC
    Format/Info                 : Advanced Video Codec
    Format profile              : [email protected]
    Format settings             : CABAC / 4 Ref Frames
    Format settings, CABAC      : Yes
    Format settings, Reference  : 4 frames
    Codec ID                    : V_MPEG4/ISO/AVC
    Duration                    : 1 h 47 min
    Bit rate                    : 16.9 Mb/s
    Width                       : 1 920 pixels
    Height                      : 1 036 pixels
    Display aspect ratio        : 1.85:1
    Frame rate mode             : Constant
    Frame rate                  : 23.976 (24000/1001) FPS
    Color space                 : YUV
    Chroma subsampling          : 4:2:0
    Bit depth                   : 8 bits
    Scan type                   : Progressive
    Bits/(Pixel*Frame)          : 0.353
    Stream size                 : 12.7 GiB (96%)
    Title                       : -WMD
    Writing library             : x264 core 163 r3059+61M 6e67fcb devel [(8 & 10)[email protected] X86_64]
    Encoding settings           : cabac=1 / ref=4 / deblock=1:-3:-3 / analyse=0x3:0x133 / me=umh / subme=10 / psy=1 / fade_compensate=0.00 / psy_rd=1.05:0.00 / mixed_ref=1 / me_range=32 / chroma_me=1 / trellis=2 / 8x8dct=1 / cqm=0 / deadzone=21,11 / fast_pskip=0 / chroma_qp_offset=-2 / threads=12 / lookahead_threads=3 / sliced_threads=0 / nr=0 / decimate=0 / interlaced=0 / bluray_compat=0 / constrained_intra=0 / fgo=0 / bframes=12 / b_pyramid=2 / b_adapt=2 / b_bias=0 / direct=3 / weightb=1 / open_gop=0 / weightp=2 / keyint=250 / keyint_min=23 / scenecut=40 / intra_refresh=0 / rc_lookahead=60 / rc=crf / mbtree=0 / crf=17.2000 / qcomp=0.62 / qpmin=0:0:0 / qpmax=69:69:69 / qpstep=4 / vbv_maxrate=62500 / vbv_bufsize=78125 / crf_max=0.0 / nal_hrd=none / filler=0 / ip_ratio=1.30 / pb_ratio=1.20 / aq=3:0.68 / aq-sensitivity=10.00 / aq-factor=1.00:1.00:1.00 / aq2=0 / aq3=0 / zones=149328,155087,crf=20
    Language                    : English
    Default                     : Yes
    Forced                      : No
    Color range                 : Limited
    Color primaries             : BT.709
    Matrix coefficients         : BT.709
    
    Audio
    ID                          : 2
    Format                      : FLAC
    Format/Info                 : Free Lossless Audio Codec
    Codec ID                    : A_FLAC
    Duration                    : 1 h 47 min
    Bit rate mode               : Variable
    Bit rate                    : 689 kb/s
    Channel(s)                  : 2 channels
    Channel layout              : L R
    Sampling rate               : 48.0 kHz
    Frame rate                  : 11.719 FPS (4096 SPF)
    Bit depth                   : 16 bits
    Compression mode            : Lossless
    Stream size                 : 531 MiB (4%)
    Writing library             : libFLAC 1.3.3 (UTC 2019-08-04)
    Language                    : English
    Default                     : Yes
    Forced                      : No
    
    Text #1
    ID                          : 3
    Format                      : UTF-8
    Codec ID                    : S_TEXT/UTF8
    Codec ID/Info               : UTF-8 Plain Text
    Duration                    : 1 h 44 min
    Bit rate                    : 77 b/s
    Count of elements           : 1661
    Stream size                 : 59.3 KiB (0%)
    Language                    : English
    Default                     : Yes
    Forced                      : No
    
    Text #2
    ID                          : 4
    Format                      : UTF-8
    Codec ID                    : S_TEXT/UTF8
    Codec ID/Info               : UTF-8 Plain Text
    Duration                    : 1 h 45 min
    Bit rate                    : 85 b/s
    Count of elements           : 1822
    Stream size                 : 65.7 KiB (0%)
    Title                       : SDH
    Language                    : English
    Default                     : No
    Forced                      : No
    
    Text #3
    ID                          : 5
    Format                      : UTF-8
    Codec ID                    : S_TEXT/UTF8
    Codec ID/Info               : UTF-8 Plain Text
    Duration                    : 1 h 47 min
    Bit rate                    : 72 b/s
    Count of elements           : 2223
    Stream size                 : 57.1 KiB (0%)
    Title                       : CC / NTSC DVD (New Line Cinema)
    Language                    : English
    Default                     : No
    Forced                      : No
    
    Menu
    00:00:00.000                : Opening Credits
    00:02:47.250                : "Cleveland, 1972"
    00:04:53.960                : "Cincinnati, 20 Years Later"
    00:07:52.806                : "Los Angeles, Two Weeks Later"
    00:10:34.384                : "Hollywood, Hollywood"
    00:14:35.917                : "We Got a Problem, David"
    00:19:47.853                : James and His Mother
    00:22:23.384                : Interrogation and Court
    00:27:17.094                : "Come On, Eddie, Tell the Truth!"
    00:32:38.832                : "You're a Drug Dealer! Deal Drugs!"
    00:37:33.543                : Betty
    00:41:06.798                : An Eye for an Eye
    00:46:53.853                : A Chemical Variant
    00:54:57.169                : The Deal Goes Bad
    01:09:40.885                : Gallegos
    01:22:41.498                : "What's Happening, Reverend?"
    01:27:24.239                : Down to the Docks
    01:38:23.731                : "Madam Chairman, My Assignment Was..."
    01:42:25.556                : Blood Money
    01:43:48.097                : End Credits/"Deep Cover"
    Download - Mirror 1:
    Download - Mirror 2:
     
  2. Loading...


Share This Page