Google Drive Deuces.Wild.2002.1080p.WEB-DL.DD5.1.H264-LCDS

Discussion in 'Web-DL / Webrip | 1080p' started by DDLbase, Feb 2, 2020.

  1. DDLbase

    DDLbase Administrator Staff Member

    [​IMG]
    [​IMG]
    Code:
    General
    Unique ID                   : 76348157765663565765206838416094618361 (0x39701ECD8D38C8FB5F22276F992D62F9)
    Complete name               : Deuces.Wild.2002.1080p.WEB-DL.DD5.1.H264-LCDS.mkv
    Format                      : Matroska
    Format version              : Version 4 / Version 2
    File size                   : 3.32 GiB
    Duration                    : 1h 36mn
    Overall bit rate            : 4 929 Kbps
    Encoded date                : UTC 2016-10-23 19:16:36
    Writing application         : mkvmerge v9.4.2 ('So High') 64bit
    Writing library             : libebml v1.3.4 + libmatroska v1.4.5
    
    Video
    ID                          : 1
    Format                      : AVC
    Format/Info                 : Advanced Video Codec
    Format profile              : [email protected]
    Format settings, CABAC      : Yes
    Format settings, ReFrames   : 5 frames
    Codec ID                    : V_MPEG4/ISO/AVC
    Duration                    : 1h 36mn
    Bit rate                    : 4 543 Kbps
    Width                       : 1 916 pixels
    Height                      : 808 pixels
    Display aspect ratio        : 2.40:1
    Frame rate mode             : Constant
    Frame rate                  : 23.976 (24000/1001) fps
    Color space                 : YUV
    Chroma subsampling          : 4:2:0
    Bit depth                   : 8 bits
    Scan type                   : Progressive
    Bits/(Pixel*Frame)          : 0.122
    Stream size                 : 3.06 GiB (92%)
    Default                     : Yes
    Forced                      : No
    Color range                 : Limited
    Color primaries             : BT.709
    Transfer characteristics    : BT.709
    Matrix coefficients         : BT.709
    
    Audio
    ID                          : 2
    Format                      : AC-3
    Format/Info                 : Audio Coding 3
    Mode extension              : CM (complete main)
    Format settings, Endianness : Big
    Codec ID                    : A_AC3
    Duration                    : 1h 36mn
    Bit rate mode               : Constant
    Bit rate                    : 384 Kbps
    Channel(s)                  : 6 channels
    Channel positions           : Front: L C R, Side: L R, LFE
    Sampling rate               : 48.0 KHz
    Frame rate                  : 31.250 fps (1536 spf)
    Compression mode            : Lossy
    Stream size                 : 264 MiB (8%)
    Title                       : English AC3 5.1
    Language                    : English
    Default                     : Yes
    Forced                      : No
    
    Text
    ID                          : 3
    Format                      : UTF-8
    Codec ID                    : S_TEXT/UTF8
    Codec ID/Info               : UTF-8 Plain Text
    Duration                    : 1h 29mn
    Bit rate                    : 57 bps
    Count of elements           : 1210
    Stream size                 : 38.0 KiB (0%)
    Title                       : English SRT
    Language                    : English
    Default                     : No
    Forced                      : No
    
    Menu
    00:00:00.000                : en:Chapter 1
    00:14:27.000                : en:Chapter 2
    00:25:42.000                : en:Chapter 3
    00:34:22.000                : en:Chapter 4
    00:46:40.000                : en:Chapter 5
    01:00:10.000                : en:Chapter 6
    01:13:07.000                : en:Chapter 7
    01:25:27.000                : en:Chapter 8
    Download:
     
  2. Loading...


Share This Page