Google Drive Devils.Knot.2013.1080p.BluRay.x264-CHD

Discussion in 'BDRip | 720p/1080p' started by DDLbase, Sep 14, 2020.

  1. DDLbase

    DDLbase Administrator Staff Member

    [​IMG]

    Rating: 6.1/10 based on 19,979 user ratings

    Genres: Biography, Crime, Drama

    The murderous, backwoods Firefly family take to the road to escape a vengeful police force which is not afraid of being as ruthless as their target.

    [​IMG]
    Code:
    General
    Unique ID                   : 237198254211793496311350156068176957230 (0xB272B8D88CBC1EF3BE9FDCF8DD1E8F2E)
    Complete name               : Devils.Knot.2013.1080p.BluRay.x264-CHD.mkv
    Format                      : Matroska
    Format version              : Version 4
    File size                   : 8.70 GiB
    Duration                    : 1 h 54 min
    Overall bit rate            : 10.9 Mb/s
    Movie name                  : Devils.Knot.2013.BluRay.1080p.DTS.x264-CHD
    Encoded date                : UTC 2014-05-24 09:08:58
    Writing application         : mkvmerge v6.8.0 ('Theme for Great Cities') 64bit built on Mar  2 2014 21:34:26
    Writing library             : libebml v1.3.0 + libmatroska v1.4.1
    
    Video
    ID                          : 1
    Format                      : AVC
    Format/Info                 : Advanced Video Codec
    Format profile              : [email protected]
    Format settings             : CABAC / 4 Ref Frames
    Format settings, CABAC      : Yes
    Format settings, Reference  : 4 frames
    Codec ID                    : V_MPEG4/ISO/AVC
    Duration                    : 1 h 54 min
    Bit rate                    : 9 405 kb/s
    Width                       : 1 920 pixels
    Height                      : 1 080 pixels
    Display aspect ratio        : 16:9
    Frame rate mode             : Constant
    Frame rate                  : 23.976 FPS
    Color space                 : YUV
    Chroma subsampling          : 4:2:0
    Bit depth                   : 8 bits
    Scan type                   : Progressive
    Bits/(Pixel*Frame)          : 0.189
    Stream size                 : 7.32 GiB (84%)
    Title                       : [email protected]
    Writing library             : x264 core 138 r2356 a1d3d17
    Encoding settings           : cabac=1 / ref=4 / deblock=1:-3:-3 / analyse=0x3:0x113 / me=umh / subme=10 / psy=1 / psy_rd=1.00:0.05 / mixed_ref=1 / me_range=32 / chroma_me=1 / trellis=2 / 8x8dct=1 / cqm=0 / deadzone=21,11 / fast_pskip=0 / chroma_qp_offset=-2 / threads=18 / lookahead_threads=1 / sliced_threads=0 / nr=0 / decimate=1 / interlaced=0 / bluray_compat=0 / constrained_intra=0 / bframes=5 / b_pyramid=2 / b_adapt=2 / b_bias=0 / direct=3 / weightb=1 / open_gop=0 / weightp=2 / keyint=250 / keyint_min=23 / scenecut=40 / intra_refresh=0 / rc=2pass / mbtree=0 / bitrate=9405 / ratetol=1.0 / qcomp=0.70 / qpmin=0 / qpmax=69 / qpstep=4 / cplxblur=20.0 / qblur=0.5 / ip_ratio=1.40 / pb_ratio=1.30 / aq=2:0.90
    Language                    : English
    Default                     : Yes
    Forced                      : No
    
    Audio
    ID                          : 2
    Format                      : DTS
    Format/Info                 : Digital Theater Systems
    Codec ID                    : A_DTS
    Duration                    : 1 h 54 min
    Bit rate mode               : Constant
    Bit rate                    : 1 509 kb/s
    Channel(s)                  : 6 channels
    Channel layout              : C L R Ls Rs LFE
    Sampling rate               : 48.0 kHz
    Frame rate                  : 93.750 FPS (512 SPF)
    Bit depth                   : 24 bits
    Compression mode            : Lossy
    Stream size                 : 1.20 GiB (14%)
    Title                       : English DTS 5.1 1509Kbps
    Language                    : English
    Default                     : Yes
    Forced                      : No
    
    Menu
    00:00:00.000                : en:00:00:00.000
    00:08:30.677                : en:00:08:30.677
    00:18:31.610                : en:00:18:31.610
    00:28:47.017                : en:00:28:47.017
    00:39:43.256                : en:00:39:43.256
    00:47:33.851                : en:00:47:33.851
    00:55:14.394                : en:00:55:14.394
    01:05:13.076                : en:01:05:13.076
    01:15:08.003                : en:01:15:08.003
    01:25:55.859                : en:01:25:55.859
    01:39:17.326                : en:01:39:17.326
    01:47:54.301                : en:01:47:54.301
    Download:
     
  2. Loading...


Share This Page