Yandex.Disk Disappearance.At.Clifton.Hill.2020.1080p.WEB-DL.H264.AC3-EVO

Discussion in 'Web-DL / Webrip | 1080p' started by DDLbase, Feb 29, 2020.

  1. DDLbase

    DDLbase Administrator Staff Member

    [​IMG]
    [​IMG]
    Code:
    General
    Unique ID                   : 48490165899006655973664326340380360030 (0x247ADDC2A5824273F100BEF4FDC27D5E)
    Complete name               : Disappearance.At.Clifton.Hill.2020.1080p.WEB-DL.H264.AC3-EVO.mkv
    Format                      : Matroska
    Format version              : Version 4 / Version 2
    File size                   : 3.48 GiB
    Duration                    : 1h 40mn
    Overall bit rate            : 4 957 Kbps
    Encoded date                : UTC 2020-02-28 05:06:25
    Writing application         : mkvmerge v35.0.0 ('All The Love In The World') 64-bit
    Writing library             : libebml v1.3.9 + libmatroska v1.5.2
    
    Video
    ID                          : 3
    Format                      : AVC
    Format/Info                 : Advanced Video Codec
    Format profile              : [email protected]
    Format settings, CABAC      : Yes
    Format settings, ReFrames   : 5 frames
    Codec ID                    : V_MPEG4/ISO/AVC
    Duration                    : 1h 40mn
    Bit rate                    : 4 571 Kbps
    Width                       : 1 920 pixels
    Height                      : 792 pixels
    Display aspect ratio        : 2.40:1
    Frame rate mode             : Constant
    Frame rate                  : 23.976 fps
    Color space                 : YUV
    Chroma subsampling          : 4:2:0
    Bit depth                   : 8 bits
    Scan type                   : Progressive
    Bits/(Pixel*Frame)          : 0.125
    Stream size                 : 3.21 GiB (92%)
    Language                    : English
    Default                     : Yes
    Forced                      : No
    Color range                 : Limited
    Color primaries             : BT.709
    Transfer characteristics    : BT.709
    Matrix coefficients         : BT.709
    
    Audio
    ID                          : 2
    Format                      : AC-3
    Format/Info                 : Audio Coding 3
    Mode extension              : CM (complete main)
    Format settings, Endianness : Big
    Codec ID                    : A_AC3
    Duration                    : 1h 40mn
    Bit rate mode               : Constant
    Bit rate                    : 384 Kbps
    Channel(s)                  : 6 channels
    Channel positions           : Front: L C R, Side: L R, LFE
    Sampling rate               : 48.0 KHz
    Frame rate                  : 31.250 fps (1536 spf)
    Compression mode            : Lossy
    Delay relative to video     : -42ms
    Stream size                 : 276 MiB (8%)
    Language                    : English
    Default                     : Yes
    Forced                      : No
    
    Text
    ID                          : 1
    Format                      : UTF-8
    Codec ID                    : S_TEXT/UTF8
    Codec ID/Info               : UTF-8 Plain Text
    Duration                    : 1h 39mn
    Bit rate                    : 70 bps
    Count of elements           : 1371
    Stream size                 : 51.4 KiB (0%)
    Language                    : English
    Default                     : Yes
    Forced                      : No
    
    Menu
    00:00:00.000                : en:1
    00:14:18.775                : en:2
    00:28:49.020                : en:3
    00:44:12.485                : en:4
    00:56:27.552                : en:5
    01:10:44.742                : en:6
    01:25:09.856                : en:7
    01:35:17.671                : en:8
    Download:
     

Share This Page