Google Drive Do.Not.Reply.2020.1080p.WEB-DL.DD5.1.H.264-EVO

Discussion in 'Web-DL / Webrip | 1080p' started by DDLbase, Oct 2, 2020.

  1. DDLbase

    DDLbase Administrator Staff Member

    [​IMG]

    Rating: 6.7/10 based on 73 user ratings

    Genres: Horror, Thriller

    Chelsea, a teenager, is abducted through a social media app by Brad and is held captive with other girls who are to become victims in his virtual reality filmed murders.

    [​IMG]
    Code:
    General
    Unique ID                   : 182448038995924986608162142039776650082 (0x894236D32B83E924E805102CD1CB6362)
    Complete name               : Do.Not.Reply.2020.1080p.WEB-DL.DD5.1.H.264-EVO.mkv
    Format                      : Matroska
    Format version              : Version 4
    File size                   : 3.42 GiB
    Duration                    : 1 h 38 min
    Overall bit rate            : 4 942 kb/s
    Movie name                  : EVO
    Encoded date                : UTC 2020-10-02 04:38:25
    Writing application         : mkvmerge v35.0.0 ('All The Love In The World') 64-bit
    Writing library             : libebml v1.3.9 + libmatroska v1.5.2
    
    Video
    ID                          : 2
    Format                      : AVC
    Format/Info                 : Advanced Video Codec
    Format profile              : [email protected]
    Format settings             : CABAC / 5 Ref Frames
    Format settings, CABAC      : Yes
    Format settings, Reference  : 5 frames
    Codec ID                    : V_MPEG4/ISO/AVC
    Duration                    : 1 h 38 min
    Bit rate                    : 4 556 kb/s
    Width                       : 1 916 pixels
    Height                      : 800 pixels
    Display aspect ratio        : 2.40:1
    Frame rate mode             : Constant
    Frame rate                  : 23.976 (24000/1001) FPS
    Color space                 : YUV
    Chroma subsampling          : 4:2:0
    Bit depth                   : 8 bits
    Scan type                   : Progressive
    Bits/(Pixel*Frame)          : 0.124
    Stream size                 : 3.15 GiB (92%)
    Language                    : English
    Default                     : Yes
    Forced                      : No
    Color range                 : Limited
    Color primaries             : BT.709
    Transfer characteristics    : BT.709
    Matrix coefficients         : BT.709
    
    Audio
    ID                          : 1
    Format                      : AC-3
    Format/Info                 : Audio Coding 3
    Commercial name             : Dolby Digital
    Codec ID                    : A_AC3
    Duration                    : 1 h 38 min
    Bit rate mode               : Constant
    Bit rate                    : 384 kb/s
    Channel(s)                  : 6 channels
    Channel layout              : L R C LFE Ls Rs
    Sampling rate               : 48.0 kHz
    Frame rate                  : 31.250 FPS (1536 SPF)
    Compression mode            : Lossy
    Delay relative to video     : -42 ms
    Stream size                 : 272 MiB (8%)
    Language                    : English
    Service kind                : Complete Main
    Default                     : Yes
    Forced                      : No
    
    Menu
    00:00:00.000                : en:Chapter 1
    00:08:10.949                : en:Chapter 2
    00:21:14.606                : en:Chapter 3
    00:32:03.504                : en:Chapter 4
    00:41:21.687                : en:Chapter 5
    00:50:50.380                : en:Chapter 6
    01:02:04.720                : en:Chapter 7
    01:12:13.745                : en:Chapter 8
    01:22:11.759                : en:Chapter 9
    01:36:48.801                : en:Chapter 10
    Download - Mirror 1:
    Download - Mirror 2:
     
  2. Loading...


Share This Page