Google Drive Doctor.Strange.in.the.Multiverse.of.Madness.2022.1080p.Bluray.DTS-HD.MA.7.1.X264-EVO

Discussion in 'BDRip | 720p/1080p' started by DDLbase, Jul 5, 2022.

  1. DDLbase

    DDLbase Administrator Staff Member

    [​IMG]

    Rating: 7.1/10 based on 278,023 user ratings

    Genres: Action, Adventure, Fantasy

    Doctor Strange teams up with a mysterious teenage girl from his dreams who can travel across multiverses, to battle multiple threats, including other-universe versions of himself, which threaten to wipe out millions across the multiverse. They seek help from Wanda the Scarlet Witch, Wong and others.

    [​IMG]
    Code:
    General
    Unique ID                   : 130150765672968197115396528527812240067 (0x61EA202D2F0B6685280A21F7E69AA2C3)
    Complete name               : Doctor.Strange.in.the.Multiverse.of.Madness.2022.1080p.Bluray.DTS-HD.MA.7.1.X264-EVO.mkv
    Format                      : Matroska
    Format version              : Version 4
    File size                   : 16.8 GiB
    Duration                    : 2 h 6 min
    Overall bit rate mode       : Variable
    Overall bit rate            : 19.0 Mb/s
    Movie name                  : EVO
    Encoded date                : UTC 2022-07-04 21:22:11 / UTC 2022-07-04T21:08:28Z
    Writing application         : mkvmerge v49.0.0 ('Sick Of Losing Soulmates') 64-bit
    Writing library             : libebml v1.4.0 + libmatroska v1.6.1 / Lavf55.12.0
    
    Video
    ID                          : 5
    Format                      : AVC
    Format/Info                 : Advanced Video Codec
    Format profile              : [email protected]
    Format settings             : CABAC / 4 Ref Frames
    Format settings, CABAC      : Yes
    Format settings, Reference  : 4 frames
    Format settings, GOP        : M=1, N=3
    Codec ID                    : V_MPEG4/ISO/AVC
    Duration                    : 2 h 6 min
    Bit rate                    : 13.5 Mb/s
    Width                       : 1 920 pixels
    Height                      : 800 pixels
    Display aspect ratio        : 2.40:1
    Frame rate mode             : Constant
    Frame rate                  : 23.976 (24000/1001) FPS
    Color space                 : YUV
    Chroma subsampling          : 4:2:0
    Bit depth                   : 8 bits
    Scan type                   : Progressive
    Bits/(Pixel*Frame)          : 0.367
    Stream size                 : 11.8 GiB (70%)
    Writing library             : x264 core 142 r2479 dd79a61
    Encoding settings           : cabac=1 / ref=1 / deblock=1:0:0 / analyse=0x3:0x3 / me=dia / subme=1 / psy=1 / psy_rd=1.00:0.00 / mixed_ref=0 / me_range=16 / chroma_me=1 / trellis=0 / 8x8dct=1 / cqm=0 / deadzone=21,11 / fast_pskip=1 / chroma_qp_offset=0 / threads=24 / lookahead_threads=4 / sliced_threads=0 / nr=0 / decimate=1 / interlaced=0 / bluray_compat=0 / constrained_intra=0 / bframes=3 / b_pyramid=2 / b_adapt=1 / b_bias=0 / direct=1 / weightb=1 / open_gop=0 / weightp=1 / keyint=240 / keyint_min=24 / scenecut=40 / intra_refresh=0 / rc_lookahead=0 / rc=abr / mbtree=0 / bitrate=13500 / ratetol=1.0 / qcomp=0.60 / qpmin=0 / qpmax=69 / qpstep=4 / vbv_maxrate=62500 / vbv_bufsize=78125 / nal_hrd=none / filler=0 / ip_ratio=1.40 / pb_ratio=1.30 / aq=1:1.00
    Default                     : Yes
    Forced                      : No
    Color range                 : Limited
    Color primaries             : BT.709
    Transfer characteristics    : BT.709
    Matrix coefficients         : BT.709
    
    Audio #1
    ID                          : 4
    Format                      : DTS XLL
    Format/Info                 : Digital Theater Systems
    Commercial name             : DTS-HD Master Audio
    Codec ID                    : A_DTS
    Duration                    : 2 h 6 min
    Bit rate mode               : Variable
    Bit rate                    : 4 923 kb/s
    Channel(s)                  : 8 channels
    Channel layout              : C L R LFE Lb Rb Lss Rss
    Sampling rate               : 48.0 kHz
    Frame rate                  : 93.750 FPS (512 SPF)
    Bit depth                   : 24 bits
    Compression mode            : Lossless
    Delay relative to video     : -83 ms
    Stream size                 : 4.35 GiB (26%)
    Language                    : English
    Default                     : No
    Forced                      : No
    
    Audio #2
    ID                          : 6
    Format                      : AC-3
    Format/Info                 : Audio Coding 3
    Commercial name             : Dolby Digital
    Codec ID                    : A_AC3
    Duration                    : 2 h 6 min
    Bit rate mode               : Constant
    Bit rate                    : 640 kb/s
    Channel(s)                  : 6 channels
    Channel layout              : L R C LFE Ls Rs
    Sampling rate               : 48.0 kHz
    Frame rate                  : 31.250 FPS (1536 SPF)
    Compression mode            : Lossy
    Delay relative to video     : -5 ms
    Stream size                 : 579 MiB (3%)
    Title                       : Surround
    Language                    : English
    Service kind                : Complete Main
    Default                     : Yes
    Forced                      : No
    
    Text #1
    ID                          : 1
    Format                      : PGS
    Muxing mode                 : zlib
    Codec ID                    : S_HDMV/PGS
    Codec ID/Info               : Picture based subtitle format used on BDs/HD-DVDs
    Duration                    : 2 h 5 min
    Bit rate                    : 35.8 kb/s
    Count of elements           : 3812
    Stream size                 : 32.2 MiB (0%)
    Language                    : English
    Default                     : Yes
    Forced                      : No
    
    Text #2
    ID                          : 2
    Format                      : PGS
    Muxing mode                 : zlib
    Codec ID                    : S_HDMV/PGS
    Codec ID/Info               : Picture based subtitle format used on BDs/HD-DVDs
    Duration                    : 2 h 6 min
    Bit rate                    : 68.1 kb/s
    Count of elements           : 4444
    Stream size                 : 61.5 MiB (0%)
    Language                    : English
    Default                     : No
    Forced                      : No
    
    Text #3
    ID                          : 3
    Format                      : PGS
    Muxing mode                 : zlib
    Codec ID                    : S_HDMV/PGS
    Codec ID/Info               : Picture based subtitle format used on BDs/HD-DVDs
    Duration                    : 25 min 8 s
    Bit rate                    : 903 b/s
    Count of elements           : 20
    Stream size                 : 166 KiB (0%)
    Language                    : English
    Default                     : No
    Forced                      : No
    
    Menu
    00:00:00.000                : :Chapter 1
    00:03:51.523                : :Chapter 2
    00:08:26.631                : :Chapter 3
    00:14:19.567                : :Chapter 4
    00:18:23.185                : :Chapter 5
    00:24:37.726                : :Chapter 6
    00:37:58.276                : :Chapter 7
    00:47:15.624                : :Chapter 8
    00:50:03.667                : :Chapter 9
    00:55:51.181                : :Chapter 10
    00:59:46.457                : :Chapter 11
    01:02:19.777                : :Chapter 12
    01:05:18.539                : :Chapter 13
    01:07:20.911                : :Chapter 14
    01:15:03.707                : :Chapter 15
    01:17:01.992                : :Chapter 16
    01:19:18.545                : :Chapter 17
    01:23:29.462                : :Chapter 18
    01:26:34.314                : :Chapter 19
    01:28:51.326                : :Chapter 20
    01:34:47.431                : :Chapter 21
    01:37:38.769                : :Chapter 22
    01:41:27.748                : :Chapter 23
    01:51:03.406                : :Chapter 24
    01:53:26.591                : :Chapter 25
    01:55:38.973                : :Chapter 26
    01:56:32.193                : :Chapter 27
    01:58:48.496                : :Chapter 28
    01:59:25.783                : :Chapter 29
    Download - Mirror 1:
    Download - Mirror 2:
     
  2. Loading...


Share This Page