Google Drive Doctor.Strange.in.the.Multiverse.of.Madness.2022.IMAX.1080p.DSNP.WEB-DL.DDP5.1.Atmos.H.264-CMRG

Discussion in 'Web-DL / Webrip | 1080p' started by DDLbase, Jun 30, 2022.

  1. DDLbase

    DDLbase Administrator Staff Member

    [​IMG]

    Rating: 7.3/10 based on 210,569 user ratings

    Genres: Action, Adventure, Fantasy

    Doctor Strange teams up with a mysterious teenage girl from his dreams who can travel across multiverses, to battle multiple threats, including other-universe versions of himself, which threaten to wipe out millions across the multiverse. They seek help from Wanda the Scarlet Witch, Wong and others.

    [​IMG]
    Code:
    General
    Unique ID                   : 165422216334065057077771197519359334977 (0x7C7328F522A364DF53DE2A654CC75A41)
    Complete name               : Doctor.Strange.in.the.Multiverse.of.Madness.2022.IMAX.1080p.DSNP.WEB-DL.DDP5.1.Atmos.H.264-CMRG.mkv
    Format                      : Matroska
    Format version              : Version 4
    File size                   : 7.30 GiB
    Duration                    : 2 h 6 min
    Overall bit rate mode       : Variable
    Overall bit rate            : 8 261 kb/s
    Encoded date                : UTC 2022-06-22 06:51:21
    Writing application         : mkvmerge v61.0.0 ('So') 64-bit
    Writing library             : libebml v1.4.2 + libmatroska v1.6.4
    
    Video
    ID                          : 1
    Format                      : AVC
    Format/Info                 : Advanced Video Codec
    Format profile              : [email protected]
    Format settings             : CABAC / 4 Ref Frames
    Format settings, CABAC      : Yes
    Format settings, Reference  : 4 frames
    Codec ID                    : V_MPEG4/ISO/AVC
    Duration                    : 2 h 6 min
    Bit rate mode               : Variable
    Bit rate                    : 7 488 kb/s
    Maximum bit rate            : 12.7 Mb/s
    Width                       : 1 920 pixels
    Height                      : 1 080 pixels
    Display aspect ratio        : 16:9
    Frame rate mode             : Constant
    Frame rate                  : 23.976 (24000/1001) FPS
    Color space                 : YUV
    Chroma subsampling          : 4:2:0
    Bit depth                   : 8 bits
    Scan type                   : Progressive
    Bits/(Pixel*Frame)          : 0.151
    Stream size                 : 6.62 GiB (91%)
    Language                    : English
    Default                     : Yes
    Forced                      : No
    Color range                 : Limited
    Color primaries             : BT.709
    Transfer characteristics    : BT.709
    Matrix coefficients         : BT.709
    
    Audio
    ID                          : 2
    Format                      : E-AC-3 JOC
    Format/Info                 : Enhanced AC-3 with Joint Object Coding
    Commercial name             : Dolby Digital Plus with Dolby Atmos
    Codec ID                    : A_EAC3
    Duration                    : 2 h 6 min
    Bit rate mode               : Constant
    Bit rate                    : 768 kb/s
    Channel(s)                  : 6 channels
    Channel layout              : L R C LFE Ls Rs
    Sampling rate               : 48.0 kHz
    Frame rate                  : 31.250 FPS (1536 SPF)
    Compression mode            : Lossy
    Stream size                 : 695 MiB (9%)
    Language                    : English
    Service kind                : Complete Main
    Default                     : Yes
    Forced                      : No
    Complexity index            : 16
    Number of dynamic objects   : 15
    Bed channel count           : 1 channel
    Bed channel configuration   : LFE
    
    Text #1
    ID                          : 3
    Format                      : UTF-8
    Codec ID                    : S_TEXT/UTF8
    Codec ID/Info               : UTF-8 Plain Text
    Duration                    : 25 min 8 s
    Bit rate                    : 1 b/s
    Count of elements           : 10
    Stream size                 : 265 Bytes (0%)
    Title                       : Forced
    Language                    : English
    Default                     : Yes
    Forced                      : Yes
    
    Text #2
    ID                          : 4
    Format                      : UTF-8
    Codec ID                    : S_TEXT/UTF8
    Codec ID/Info               : UTF-8 Plain Text
    Duration                    : 2 h 5 min
    Bit rate                    : 50 b/s
    Count of elements           : 1906
    Stream size                 : 46.1 KiB (0%)
    Title                       : SDH
    Language                    : English
    Default                     : No
    Forced                      : No
    
    Text #3
    ID                          : 5
    Format                      : UTF-8
    Codec ID                    : S_TEXT/UTF8
    Codec ID/Info               : UTF-8 Plain Text
    Duration                    : 2 h 5 min
    Bit rate                    : 37 b/s
    Count of elements           : 1322
    Stream size                 : 34.2 KiB (0%)
    Language                    : English
    Default                     : No
    Forced                      : No
    
    Text #4
    ID                          : 6
    Format                      : UTF-8
    Codec ID                    : S_TEXT/UTF8
    Codec ID/Info               : UTF-8 Plain Text
    Duration                    : 2 h 5 min
    Bit rate                    : 35 b/s
    Count of elements           : 1256
    Stream size                 : 32.1 KiB (0%)
    Language                    : Czech
    Default                     : No
    Forced                      : No
    
    Text #5
    ID                          : 7
    Format                      : UTF-8
    Codec ID                    : S_TEXT/UTF8
    Codec ID/Info               : UTF-8 Plain Text
    Duration                    : 2 h 5 min
    Bit rate                    : 32 b/s
    Count of elements           : 815
    Stream size                 : 29.5 KiB (0%)
    Language                    : Danish
    Default                     : No
    Forced                      : No
    
    Text #6
    ID                          : 8
    Format                      : UTF-8
    Codec ID                    : S_TEXT/UTF8
    Codec ID/Info               : UTF-8 Plain Text
    Duration                    : 2 h 5 min
    Bit rate                    : 33 b/s
    Count of elements           : 1150
    Stream size                 : 31.2 KiB (0%)
    Language                    : German
    Default                     : No
    Forced                      : No
    
    Text #7
    ID                          : 9
    Format                      : UTF-8
    Codec ID                    : S_TEXT/UTF8
    Codec ID/Info               : UTF-8 Plain Text
    Duration                    : 2 h 5 min
    Bit rate                    : 44 b/s
    Count of elements           : 1297
    Stream size                 : 41.3 KiB (0%)
    Title                       : SDH
    Language                    : German
    Default                     : No
    Forced                      : No
    
    Text #8
    ID                          : 10
    Format                      : UTF-8
    Codec ID                    : S_TEXT/UTF8
    Codec ID/Info               : UTF-8 Plain Text
    Duration                    : 2 h 5 min
    Bit rate                    : 62 b/s
    Count of elements           : 1244
    Stream size                 : 57.1 KiB (0%)
    Language                    : Greek
    Default                     : No
    Forced                      : No
    
    Text #9
    ID                          : 11
    Format                      : UTF-8
    Codec ID                    : S_TEXT/UTF8
    Codec ID/Info               : UTF-8 Plain Text
    Duration                    : 2 h 5 min
    Bit rate                    : 35 b/s
    Count of elements           : 1248
    Stream size                 : 32.1 KiB (0%)
    Language                    : Spanish
    Default                     : No
    Forced                      : No
    
    Text #10
    ID                          : 12
    Format                      : UTF-8
    Codec ID                    : S_TEXT/UTF8
    Codec ID/Info               : UTF-8 Plain Text
    Duration                    : 2 h 5 min
    Bit rate                    : 37 b/s
    Count of elements           : 1252
    Stream size                 : 34.5 KiB (0%)
    Title                       : Latin American
    Language                    : Spanish
    Default                     : No
    Forced                      : No
    
    Text #11
    ID                          : 13
    Format                      : UTF-8
    Codec ID                    : S_TEXT/UTF8
    Codec ID/Info               : UTF-8 Plain Text
    Duration                    : 2 h 6 min
    Bit rate                    : 38 b/s
    Count of elements           : 1195
    Stream size                 : 35.2 KiB (0%)
    Title                       : Latin American SDH
    Language                    : Spanish
    Default                     : No
    Forced                      : No
    
    Text #12
    ID                          : 14
    Format                      : UTF-8
    Codec ID                    : S_TEXT/UTF8
    Codec ID/Info               : UTF-8 Plain Text
    Duration                    : 2 h 5 min
    Bit rate                    : 37 b/s
    Count of elements           : 1246
    Stream size                 : 34.1 KiB (0%)
    Language                    : Finnish
    Default                     : No
    Forced                      : No
    
    Text #13
    ID                          : 15
    Format                      : UTF-8
    Codec ID                    : S_TEXT/UTF8
    Codec ID/Info               : UTF-8 Plain Text
    Duration                    : 2 h 5 min
    Bit rate                    : 33 b/s
    Count of elements           : 1165
    Stream size                 : 30.7 KiB (0%)
    Language                    : French
    Default                     : No
    Forced                      : No
    
    Text #14
    ID                          : 16
    Format                      : UTF-8
    Codec ID                    : S_TEXT/UTF8
    Codec ID/Info               : UTF-8 Plain Text
    Duration                    : 2 h 6 min
    Bit rate                    : 42 b/s
    Count of elements           : 1460
    Stream size                 : 39.6 KiB (0%)
    Title                       : SDH
    Language                    : French
    Default                     : No
    Forced                      : No
    
    Text #15
    ID                          : 17
    Format                      : UTF-8
    Codec ID                    : S_TEXT/UTF8
    Codec ID/Info               : UTF-8 Plain Text
    Duration                    : 2 h 5 min
    Bit rate                    : 40 b/s
    Count of elements           : 1282
    Stream size                 : 37.0 KiB (0%)
    Title                       : Canadian
    Language                    : French
    Default                     : No
    Forced                      : No
    
    Text #16
    ID                          : 18
    Format                      : UTF-8
    Codec ID                    : S_TEXT/UTF8
    Codec ID/Info               : UTF-8 Plain Text
    Duration                    : 2 h 5 min
    Bit rate                    : 57 b/s
    Count of elements           : 1957
    Stream size                 : 53.0 KiB (0%)
    Title                       : Canadian SDH
    Language                    : French
    Default                     : No
    Forced                      : No
    
    Text #17
    ID                          : 19
    Format                      : UTF-8
    Codec ID                    : S_TEXT/UTF8
    Codec ID/Info               : UTF-8 Plain Text
    Duration                    : 2 h 5 min
    Bit rate                    : 33 b/s
    Count of elements           : 1256
    Stream size                 : 30.6 KiB (0%)
    Language                    : Hungarian
    Default                     : No
    Forced                      : No
    
    Text #18
    ID                          : 20
    Format                      : UTF-8
    Codec ID                    : S_TEXT/UTF8
    Codec ID/Info               : UTF-8 Plain Text
    Duration                    : 2 h 5 min
    Bit rate                    : 36 b/s
    Count of elements           : 1258
    Stream size                 : 33.9 KiB (0%)
    Language                    : Icelandic
    Default                     : No
    Forced                      : No
    
    Text #19
    ID                          : 21
    Format                      : UTF-8
    Codec ID                    : S_TEXT/UTF8
    Codec ID/Info               : UTF-8 Plain Text
    Duration                    : 2 h 5 min
    Bit rate                    : 38 b/s
    Count of elements           : 1260
    Stream size                 : 35.3 KiB (0%)
    Language                    : Italian
    Default                     : No
    Forced                      : No
    
    Text #20
    ID                          : 22
    Format                      : UTF-8
    Codec ID                    : S_TEXT/UTF8
    Codec ID/Info               : UTF-8 Plain Text
    Duration                    : 2 h 5 min
    Bit rate                    : 31 b/s
    Count of elements           : 1177
    Stream size                 : 29.1 KiB (0%)
    Language                    : Japanese
    Default                     : No
    Forced                      : No
    
    Text #21
    ID                          : 23
    Format                      : UTF-8
    Codec ID                    : S_TEXT/UTF8
    Codec ID/Info               : UTF-8 Plain Text
    Duration                    : 2 h 5 min
    Bit rate                    : 38 b/s
    Count of elements           : 1255
    Stream size                 : 35.0 KiB (0%)
    Language                    : Korean
    Default                     : No
    Forced                      : No
    
    Text #22
    ID                          : 24
    Format                      : UTF-8
    Codec ID                    : S_TEXT/UTF8
    Codec ID/Info               : UTF-8 Plain Text
    Duration                    : 2 h 5 min
    Bit rate                    : 35 b/s
    Count of elements           : 1011
    Stream size                 : 32.8 KiB (0%)
    Language                    : Dutch
    Default                     : No
    Forced                      : No
    
    Text #23
    ID                          : 25
    Format                      : UTF-8
    Codec ID                    : S_TEXT/UTF8
    Codec ID/Info               : UTF-8 Plain Text
    Duration                    : 2 h 5 min
    Bit rate                    : 33 b/s
    Count of elements           : 1261
    Stream size                 : 31.1 KiB (0%)
    Language                    : Norwegian
    Default                     : No
    Forced                      : No
    
    Text #24
    ID                          : 26
    Format                      : UTF-8
    Codec ID                    : S_TEXT/UTF8
    Codec ID/Info               : UTF-8 Plain Text
    Duration                    : 2 h 5 min
    Bit rate                    : 30 b/s
    Count of elements           : 1249
    Stream size                 : 27.8 KiB (0%)
    Language                    : Polish
    Default                     : No
    Forced                      : No
    
    Text #25
    ID                          : 27
    Format                      : UTF-8
    Codec ID                    : S_TEXT/UTF8
    Codec ID/Info               : UTF-8 Plain Text
    Duration                    : 2 h 6 min
    Bit rate                    : 36 b/s
    Count of elements           : 1246
    Stream size                 : 33.8 KiB (0%)
    Language                    : Portuguese
    Default                     : No
    Forced                      : No
    
    Text #26
    ID                          : 28
    Format                      : UTF-8
    Codec ID                    : S_TEXT/UTF8
    Codec ID/Info               : UTF-8 Plain Text
    Duration                    : 2 h 5 min
    Bit rate                    : 36 b/s
    Count of elements           : 1253
    Stream size                 : 33.5 KiB (0%)
    Title                       : Brazilian
    Language                    : Portuguese
    Default                     : No
    Forced                      : No
    
    Text #27
    ID                          : 29
    Format                      : UTF-8
    Codec ID                    : S_TEXT/UTF8
    Codec ID/Info               : UTF-8 Plain Text
    Duration                    : 2 h 6 min
    Bit rate                    : 47 b/s
    Count of elements           : 1621
    Stream size                 : 43.8 KiB (0%)
    Title                       : Brazilian SDH
    Language                    : Portuguese
    Default                     : No
    Forced                      : No
    
    Text #28
    ID                          : 30
    Format                      : UTF-8
    Codec ID                    : S_TEXT/UTF8
    Codec ID/Info               : UTF-8 Plain Text
    Duration                    : 2 h 5 min
    Bit rate                    : 38 b/s
    Count of elements           : 1197
    Stream size                 : 35.0 KiB (0%)
    Language                    : Romanian
    Default                     : No
    Forced                      : No
    
    Text #29
    ID                          : 31
    Format                      : UTF-8
    Codec ID                    : S_TEXT/UTF8
    Codec ID/Info               : UTF-8 Plain Text
    Duration                    : 2 h 5 min
    Bit rate                    : 32 b/s
    Count of elements           : 1257
    Stream size                 : 29.4 KiB (0%)
    Language                    : Slovak
    Default                     : No
    Forced                      : No
    
    Text #30
    ID                          : 32
    Format                      : UTF-8
    Codec ID                    : S_TEXT/UTF8
    Codec ID/Info               : UTF-8 Plain Text
    Duration                    : 2 h 5 min
    Bit rate                    : 35 b/s
    Count of elements           : 949
    Stream size                 : 32.3 KiB (0%)
    Language                    : Swedish
    Default                     : No
    Forced                      : No
    
    Text #31
    ID                          : 33
    Format                      : UTF-8
    Codec ID                    : S_TEXT/UTF8
    Codec ID/Info               : UTF-8 Plain Text
    Duration                    : 2 h 5 min
    Bit rate                    : 36 b/s
    Count of elements           : 1254
    Stream size                 : 33.4 KiB (0%)
    Language                    : Turkish
    Default                     : No
    Forced                      : No
    
    Text #32
    ID                          : 34
    Format                      : UTF-8
    Codec ID                    : S_TEXT/UTF8
    Codec ID/Info               : UTF-8 Plain Text
    Duration                    : 2 h 5 min
    Bit rate                    : 30 b/s
    Count of elements           : 1259
    Stream size                 : 27.9 KiB (0%)
    Title                       : Hong Kong
    Language                    : Chinese
    Default                     : No
    Forced                      : No
    
    Text #33
    ID                          : 35
    Format                      : UTF-8
    Codec ID                    : S_TEXT/UTF8
    Codec ID/Info               : UTF-8 Plain Text
    Duration                    : 2 h 5 min
    Bit rate                    : 34 b/s
    Count of elements           : 1261
    Stream size                 : 31.3 KiB (0%)
    Title                       : Simplified
    Language                    : Chinese
    Default                     : No
    Forced                      : No
    
    Text #34
    ID                          : 36
    Format                      : UTF-8
    Codec ID                    : S_TEXT/UTF8
    Codec ID/Info               : UTF-8 Plain Text
    Duration                    : 2 h 5 min
    Bit rate                    : 30 b/s
    Count of elements           : 1273
    Stream size                 : 27.7 KiB (0%)
    Title                       : Traditional
    Language                    : Chinese
    Default                     : No
    Forced                      : No
    
    Menu
    01:59:27.417                : Credits
    Download - Mirror 1:
    Download - Mirror 2:
     
  2. Loading...


Share This Page