Google Drive Dont.Say.a.Word.2001.1080p.BluRay.x264-PSYCHD

Discussion in 'BDRip | 720p/1080p' started by DDLbase, Jul 14, 2020.

  1. DDLbase

    DDLbase Administrator Staff Member

    [​IMG]

    Rating: 6.3/10 based on 45,320 user ratings

    Genres: Drama, Mystery, Thriller

    When the daughter of a psychiatrist is kidnapped, he’s horrified to discover that the abductors’ demand is that he break through to a post traumatic stress disorder suffering young woman who knows a secret…

    [​IMG]
    Code:
    General
    Complete name               : Dont.Say.a.Word.2001.1080p.BluRay.x264-PSYCHD.mkv
    Format                      : Matroska
    Format version              : Version 2
    File size                   : 7.65 GiB
    Duration                    : 1 h 53 min
    Overall bit rate            : 9 640 kb/s
    Writing application         : x264.exe
    Writing library             : mkv2rls v1.4 (date: 2011 mar 29)
    
    Video
    ID                          : 1
    Format                      : AVC
    Format/Info                 : Advanced Video Codec
    Format profile              : [email protected]
    Format settings             : CABAC / 5 Ref Frames
    Format settings, CABAC      : Yes
    Format settings, Reference  : 5 frames
    Codec ID                    : V_MPEG4/ISO/AVC
    Duration                    : 1 h 53 min
    Bit rate                    : 8 133 kb/s
    Width                       : 1 920 pixels
    Height                      : 816 pixels
    Display aspect ratio        : 2.35:1
    Frame rate mode             : Constant
    Frame rate                  : 23.976 (24000/1001) FPS
    Color space                 : YUV
    Chroma subsampling          : 4:2:0
    Bit depth                   : 8 bits
    Scan type                   : Progressive
    Bits/(Pixel*Frame)          : 0.217
    Stream size                 : 6.30 GiB (82%)
    Writing library             : x264 core 116 r2074 2641b9e
    Encoding settings           : cabac=1 / ref=5 / deblock=1:0:0 / analyse=0x3:0x113 / me=umh / subme=8 / psy=1 / psy_rd=1.00:0.00 / mixed_ref=1 / me_range=16 / chroma_me=1 / trellis=1 / 8x8dct=1 / cqm=0 / deadzone=21,11 / fast_pskip=1 / chroma_qp_offset=-2 / threads=12 / sliced_threads=0 / nr=0 / decimate=1 / interlaced=0 / bluray_compat=0 / constrained_intra=0 / bframes=3 / b_pyramid=2 / b_adapt=2 / b_bias=0 / direct=3 / weightb=1 / open_gop=0 / weightp=2 / keyint=240 / keyint_min=24 / scenecut=40 / intra_refresh=0 / rc_lookahead=50 / rc=2pass / mbtree=1 / bitrate=8133 / ratetol=1.0 / qcomp=0.60 / qpmin=0 / qpmax=69 / qpstep=4 / cplxblur=20.0 / qblur=0.5 / ip_ratio=1.40 / aq=1:1.00
    Language                    : English
    Default                     : Yes
    Forced                      : No
    
    Audio
    ID                          : 2
    Format                      : DTS
    Format/Info                 : Digital Theater Systems
    Codec ID                    : A_DTS
    Duration                    : 1 h 53 min
    Bit rate mode               : Constant
    Bit rate                    : 1 509 kb/s
    Channel(s)                  : 6 channels
    Channel layout              : C L R Ls Rs LFE
    Sampling rate               : 48.0 kHz
    Frame rate                  : 93.750 FPS (512 SPF)
    Bit depth                   : 24 bits
    Compression mode            : Lossy
    Stream size                 : 1.20 GiB (16%)
    Language                    : English
    Default                     : Yes
    Forced                      : No
    
    Text
    ID                          : 3
    Format                      : UTF-8
    Codec ID                    : S_TEXT/UTF8
    Codec ID/Info               : UTF-8 Plain Text
    Language                    : English
    Default                     : No
    Forced                      : No
    
    Menu
    00:00:00.000                : en:00:00:00.000
    00:08:10.490                : en:00:08:10.490
    00:11:16.676                : en:00:11:16.676
    00:18:50.546                : en:00:18:50.546
    00:20:02.952                : en:00:20:02.952
    00:23:31.702                : en:00:23:31.702
    00:26:54.780                : en:00:26:54.780
    00:29:50.664                : en:00:29:50.664
    00:35:31.338                : en:00:35:31.338
    00:37:07.559                : en:00:37:07.559
    00:42:11.696                : en:00:42:11.696
    00:44:05.643                : en:00:44:05.643
    00:47:15.416                : en:00:47:15.416
    00:53:40.217                : en:00:53:40.217
    00:56:37.978                : en:00:56:37.978
    00:59:07.502                : en:00:59:07.502
    01:03:58.126                : en:01:03:58.126
    01:07:30.088                : en:01:07:30.088
    01:10:24.387                : en:01:10:24.387
    01:12:00.066                : en:01:12:00.066
    01:18:19.778                : en:01:18:19.778
    01:19:18.921                : en:01:19:18.921
    01:24:32.776                : en:01:24:32.776
    01:27:01.633                : en:01:27:01.633
    01:30:05.567                : en:01:30:05.567
    01:34:03.388                : en:01:34:03.388
    01:37:04.485                : en:01:37:04.485
    01:39:14.365                : en:01:39:14.365
    01:40:37.365                : en:01:40:37.365
    01:43:49.765                : en:01:43:49.765
    01:47:04.960                : en:01:47:04.960
    01:49:33.984                : en:01:49:33.984
    Download - Mirror 1:
    Download - Mirror 2:
     
  2. Loading...


Share This Page