Google Drive Dungeons.and.Dragons.Honor.Among.Thieves.2023.1080p.AMZN.WEB-DL.DDP5.1.Atmos.H.264-CMRG

Discussion in 'Web-DL / Webrip | 1080p' started by DDLbase, May 2, 2023.

  1. DDLbase

    DDLbase Administrator Staff Member

    [​IMG]

    Rating: 7.5/10 based on 54,779 user ratings

    Genres: Action, Adventure, Comedy

    A charming thief and a band of unlikely adventurers embark on an epic quest to retrieve a lost relic, but things go dangerously awry when they run afoul of the wrong people.

    [​IMG]
    Code:
    General
    Unique ID                   : 44747794795551764882198329476084891694 (0x21AA1C9E8B85B152734FE3292D8F802E)
    Complete name               : Dungeons.and.Dragons.Honor.Among.Thieves.2023.1080p.AMZN.WEB-DL.DDP5.1.Atmos.H.264-CMRG.mkv
    Format                      : Matroska
    Format version              : Version 4
    File size                   : 8.18 GiB
    Duration                    : 2 h 15 min
    Overall bit rate            : 8 614 kb/s
    Writing application         : mkvmerge v75.0.0 ('Goliath') 64-bit
    Writing library             : libebml v1.4.4 + libmatroska v1.7.1
    
    Video
    ID                          : 1
    Format                      : AVC
    Format/Info                 : Advanced Video Codec
    Format profile              : [email protected]
    Format settings             : CABAC / 4 Ref Frames
    Format settings, CABAC      : Yes
    Format settings, Reference  : 4 frames
    Codec ID                    : V_MPEG4/ISO/AVC
    Duration                    : 2 h 15 min
    Bit rate mode               : Constant
    Bit rate                    : 7 853 kb/s
    Nominal bit rate            : 10 000 kb/s
    Width                       : 1 920 pixels
    Height                      : 800 pixels
    Display aspect ratio        : 2.40:1
    Frame rate mode             : Constant
    Frame rate                  : 23.976 (24000/1001) FPS
    Color space                 : YUV
    Chroma subsampling          : 4:2:0
    Bit depth                   : 8 bits
    Scan type                   : Progressive
    Bits/(Pixel*Frame)          : 0.213
    Stream size                 : 7.46 GiB (91%)
    Language                    : English
    Default                     : Yes
    Forced                      : No
    Color range                 : Limited
    Color primaries             : BT.709
    Transfer characteristics    : BT.709
    Matrix coefficients         : BT.709
    
    Audio
    ID                          : 2
    Format                      : E-AC-3 JOC
    Format/Info                 : Enhanced AC-3 with Joint Object Coding
    Commercial name             : Dolby Digital Plus with Dolby Atmos
    Codec ID                    : A_EAC3
    Duration                    : 2 h 14 min
    Bit rate mode               : Constant
    Bit rate                    : 768 kb/s
    Channel(s)                  : 6 channels
    Channel layout              : L R C LFE Ls Rs
    Sampling rate               : 48.0 kHz
    Frame rate                  : 31.250 FPS (1536 SPF)
    Compression mode            : Lossy
    Stream size                 : 737 MiB (9%)
    Language                    : English
    Service kind                : Complete Main
    Default                     : Yes
    Forced                      : No
    Complexity index            : 16
    Number of dynamic objects   : 15
    Bed channel count           : 1 channel
    Bed channel configuration   : LFE
    
    Text #1
    ID                          : 3
    Format                      : UTF-8
    Codec ID                    : S_TEXT/UTF8
    Codec ID/Info               : UTF-8 Plain Text
    Duration                    : 35 min 25 s
    Bit rate                    : 1 b/s
    Frame rate                  : 0.006 FPS
    Count of elements           : 13
    Stream size                 : 484 Bytes (0%)
    Title                       : Forced
    Language                    : English
    Default                     : Yes
    Forced                      : Yes
    
    Text #2
    ID                          : 4
    Format                      : UTF-8
    Codec ID                    : S_TEXT/UTF8
    Codec ID/Info               : UTF-8 Plain Text
    Duration                    : 2 h 6 min
    Bit rate                    : 62 b/s
    Frame rate                  : 0.217 FPS
    Count of elements           : 1653
    Stream size                 : 58.1 KiB (0%)
    Language                    : English
    Default                     : No
    Forced                      : No
    
    Text #3
    ID                          : 5
    Format                      : UTF-8
    Codec ID                    : S_TEXT/UTF8
    Codec ID/Info               : UTF-8 Plain Text
    Duration                    : 2 h 7 min
    Bit rate                    : 68 b/s
    Frame rate                  : 0.252 FPS
    Count of elements           : 1931
    Stream size                 : 64.3 KiB (0%)
    Title                       : SDH
    Language                    : English
    Default                     : No
    Forced                      : No
    
    Text #4
    ID                          : 6
    Format                      : UTF-8
    Codec ID                    : S_TEXT/UTF8
    Codec ID/Info               : UTF-8 Plain Text
    Duration                    : 2 h 12 min
    Bit rate                    : 54 b/s
    Frame rate                  : 0.197 FPS
    Count of elements           : 1570
    Stream size                 : 53.2 KiB (0%)
    Title                       : Latin American
    Language                    : Spanish
    Default                     : No
    Forced                      : No
    
    Text #5
    ID                          : 7
    Format                      : UTF-8
    Codec ID                    : S_TEXT/UTF8
    Codec ID/Info               : UTF-8 Plain Text
    Duration                    : 2 h 12 min
    Bit rate                    : 161 b/s
    Frame rate                  : 0.199 FPS
    Count of elements           : 1590
    Stream size                 : 158 KiB (0%)
    Language                    : Telugu
    Default                     : No
    Forced                      : No
    
    Text #6
    ID                          : 8
    Format                      : UTF-8
    Codec ID                    : S_TEXT/UTF8
    Codec ID/Info               : UTF-8 Plain Text
    Duration                    : 2 h 12 min
    Bit rate                    : 55 b/s
    Frame rate                  : 0.199 FPS
    Count of elements           : 1584
    Stream size                 : 54.5 KiB (0%)
    Language                    : Spanish
    Default                     : No
    Forced                      : No
    
    Text #7
    ID                          : 9
    Format                      : UTF-8
    Codec ID                    : S_TEXT/UTF8
    Codec ID/Info               : UTF-8 Plain Text
    Duration                    : 2 h 12 min
    Bit rate                    : 58 b/s
    Frame rate                  : 0.199 FPS
    Count of elements           : 1588
    Stream size                 : 57.4 KiB (0%)
    Title                       : Canadian
    Language                    : French
    Default                     : No
    Forced                      : No
    
    Text #8
    ID                          : 10
    Format                      : UTF-8
    Codec ID                    : S_TEXT/UTF8
    Codec ID/Info               : UTF-8 Plain Text
    Duration                    : 2 h 12 min
    Bit rate                    : 143 b/s
    Frame rate                  : 0.199 FPS
    Count of elements           : 1587
    Stream size                 : 140 KiB (0%)
    Language                    : Hindi
    Default                     : No
    Forced                      : No
    
    Text #9
    ID                          : 11
    Format                      : UTF-8
    Codec ID                    : S_TEXT/UTF8
    Codec ID/Info               : UTF-8 Plain Text
    Duration                    : 2 h 12 min
    Bit rate                    : 53 b/s
    Frame rate                  : 0.172 FPS
    Count of elements           : 1374
    Stream size                 : 51.8 KiB (0%)
    Language                    : Dutch
    Default                     : No
    Forced                      : No
    
    Text #10
    ID                          : 12
    Format                      : UTF-8
    Codec ID                    : S_TEXT/UTF8
    Codec ID/Info               : UTF-8 Plain Text
    Duration                    : 2 h 12 min
    Bit rate                    : 51 b/s
    Frame rate                  : 0.198 FPS
    Count of elements           : 1576
    Stream size                 : 49.9 KiB (0%)
    Title                       : Brazilian
    Language                    : Portuguese
    Default                     : No
    Forced                      : No
    
    Text #11
    ID                          : 13
    Format                      : UTF-8
    Codec ID                    : S_TEXT/UTF8
    Codec ID/Info               : UTF-8 Plain Text
    Duration                    : 2 h 12 min
    Bit rate                    : 51 b/s
    Frame rate                  : 0.176 FPS
    Count of elements           : 1403
    Stream size                 : 50.3 KiB (0%)
    Language                    : Swedish
    Default                     : No
    Forced                      : No
    
    Text #12
    ID                          : 14
    Format                      : UTF-8
    Codec ID                    : S_TEXT/UTF8
    Codec ID/Info               : UTF-8 Plain Text
    Duration                    : 2 h 12 min
    Bit rate                    : 156 b/s
    Frame rate                  : 0.199 FPS
    Count of elements           : 1587
    Stream size                 : 152 KiB (0%)
    Language                    : Tamil
    Default                     : No
    Forced                      : No
    
    Menu
    00:00:00.000                : en:Chapter 01
    00:07:55.475                : en:Chapter 02
    00:14:48.388                : en:Chapter 03
    00:26:48.566                : en:Chapter 04
    00:33:54.200                : en:Chapter 05
    00:42:14.284                : en:Chapter 06
    00:49:19.668                : en:Chapter 07
    00:57:33.411                : en:Chapter 08
    01:05:10.201                : en:Chapter 09
    01:17:03.248                : en:Chapter 10
    01:26:40.116                : en:Chapter 11
    01:32:11.114                : en:Chapter 12
    01:40:15.348                : en:Chapter 13
    01:47:44.547                : en:Chapter 14
    01:53:28.475                : en:Chapter 15
    02:05:41.166                : en:Chapter 16
    Download - Mirror 1:
    Download - Mirror 2:
    Download - Mirror 3:
     
  2. Loading...


Share This Page