Google Drive Eden.2012.1080p.BluRay.x264.DTS-FGT

Discussion in 'BDRip | 720p/1080p' started by DDLbase, Apr 13, 2021.

  1. DDLbase

    DDLbase Administrator Staff Member

    [​IMG]

    Rating: 6.6/10 based on 8,347 user ratings

    Genres: Crime, Drama

    A young Korean-American girl, abducted and forced into prostitution by domestic human traffickers, cooperates with her captors in a desperate ploy to survive.

    [​IMG]
    Code:
    General
    Unique ID                   : 204922476356769266084430051636630046934 (0x9A2AA2232ED3BB8487794911DC78C8D6)
    Complete name               : Eden.2012.1080p.BluRay.x264.DTS-FGT.mkv
    Format                      : Matroska
    Format version              : Version 4
    File size                   : 8.57 GiB
    Duration                    : 1 h 38 min
    Overall bit rate            : 12.5 Mb/s
    Movie name                  : Eden.2012.1080p.BluRay.x264.DTS-FGT
    Encoded date                : UTC 2015-11-04 10:16:39
    Writing application         : mkvmerge v8.3.0 ('Over the Horizon') 64bit
    Writing library             : libebml v1.3.1 + libmatroska v1.4.2
    Cover                       : Yes
    Attachments                 : cover_land.jpg / small_cover.jpg / small_cover_land.jpg / cover.jpg
    
    Video
    ID                          : 1
    Format                      : AVC
    Format/Info                 : Advanced Video Codec
    Format profile              : [email protected]
    Format settings             : CABAC / 5 Ref Frames
    Format settings, CABAC      : Yes
    Format settings, Reference  : 5 frames
    Codec ID                    : V_MPEG4/ISO/AVC
    Duration                    : 1 h 38 min
    Bit rate                    : 11.0 Mb/s
    Width                       : 1 920 pixels
    Height                      : 816 pixels
    Display aspect ratio        : 2.35:1
    Frame rate mode             : Constant
    Frame rate                  : 23.976 (24000/1001) FPS
    Color space                 : YUV
    Chroma subsampling          : 4:2:0
    Bit depth                   : 8 bits
    Scan type                   : Progressive
    Bits/(Pixel*Frame)          : 0.293
    Stream size                 : 7.37 GiB (86%)
    Writing library             : x264 core 130 r2273 b3065e6
    Encoding settings           : cabac=1 / ref=5 / deblock=1:-2:-1 / analyse=0x3:0x133 / me=umh / subme=10 / psy=1 / psy_rd=1.00:0.20 / mixed_ref=0 / me_range=48 / chroma_me=1 / trellis=2 / 8x8dct=1 / cqm=0 / deadzone=21,11 / fast_pskip=0 / chroma_qp_offset=-4 / threads=3 / lookahead_threads=1 / sliced_threads=0 / nr=0 / decimate=1 / interlaced=0 / bluray_compat=0 / constrained_intra=0 / bframes=9 / b_pyramid=2 / b_adapt=2 / b_bias=0 / direct=3 / weightb=1 / open_gop=0 / weightp=2 / keyint=240 / keyint_min=23 / scenecut=40 / intra_refresh=0 / rc_lookahead=60 / rc=2pass / mbtree=1 / bitrate=10999 / ratetol=1.0 / qcomp=0.70 / qpmin=0 / qpmax=59 / qpstep=4 / cplxblur=20.0 / qblur=0.5 / vbv_maxrate=62500 / vbv_bufsize=78125 / nal_hrd=none / ip_ratio=1.40 / aq=1:0.80
    Language                    : English
    Default                     : Yes
    Forced                      : No
    Color range                 : Limited
    Matrix coefficients         : BT.709
    
    Audio
    ID                          : 2
    Format                      : DTS
    Format/Info                 : Digital Theater Systems
    Codec ID                    : A_DTS
    Duration                    : 1 h 38 min
    Bit rate mode               : Constant
    Bit rate                    : 1 509 kb/s
    Channel(s)                  : 6 channels
    Channel layout              : C L R Ls Rs LFE
    Sampling rate               : 48.0 kHz
    Frame rate                  : 93.750 FPS (512 SPF)
    Bit depth                   : 16 bits
    Compression mode            : Lossy
    Stream size                 : 1.03 GiB (12%)
    Language                    : English
    Default                     : Yes
    Forced                      : No
    
    Menu
    00:00:00.000                : en:00:00:00.000
    00:09:03.710                : en:00:09:03.710
    00:16:45.421                : en:00:16:45.421
    00:24:13.535                : en:00:24:13.535
    00:33:11.573                : en:00:33:11.573
    00:41:35.034                : en:00:41:35.034
    00:50:48.003                : en:00:50:48.003
    01:01:15.171                : en:01:01:15.171
    01:10:30.935                : en:01:10:30.935
    01:16:48.270                : en:01:16:48.270
    01:23:58.992                : en:01:23:58.992
    01:33:19.761                : en:01:33:19.761
    Download - Mirror 1:
    Download - Mirror 2:
     
  2. Loading...


Share This Page