MEGA Eden.Lake.2008.BluRay.1080p.DTS-HD.MA.5.1.AVC.REMUX-FraMeSToR

Discussion in 'BD REMUX | 1080p' started by DDLbase, Jun 8, 2019.

  1. DDLbase

    DDLbase Administrator Staff Member

    [​IMG]

    This decidedly British take on the likes of Michael Haneke's Funny Games and the French shocker Them finds young teacher Jenny (Kelly Reilly) and boyfriend Steve (Michael Fassbender) enjoying a peaceful holiday at the eponymous idyllic beauty spot. However, Jenny and Steve's tranquil break is thrown into anarchy when a group of teenagers surround their site and begin to victimise them...

    [​IMG][​IMG][​IMG][​IMG][​IMG][​IMG]

    Code:
    Format                                   : Matroska
    Format version                           : Version 4 / Version 2
    File size                                : 14.2 GiB
    Duration                                 : 1 h 31 min
    Overall bit rate mode                    : Variable
    Overall bit rate                         : 22.3 Mb/s
    Movie name                               : Eden Lake (2008)
    Encoded date                             : UTC 2018-06-10 17:51:58
    Writing application                      : mkvmerge v24.0.0 ('Beyond The Pale') 64-bit
    Writing library                          : libebml v1.3.6 + libmatroska v1.4.9
    
    Video
    ID                                       : 1
    Format                                   : AVC
    Format/Info                              : Advanced Video Codec
    Format profile                           : [email protected]
    Format settings, CABAC                   : Yes
    Format settings, ReFrames                : 4 frames
    Codec ID                                 : V_MPEG4/ISO/AVC
    Duration                                 : 1 h 31 min
    Bit rate mode                            : Variable
    Bit rate                                 : 18.0 Mb/s
    Maximum bit rate                         : 36.0 Mb/s
    Width                                    : 1 920 pixels
    Height                                   : 1 080 pixels
    Display aspect ratio                     : 16:9
    Frame rate mode                          : Constant
    Frame rate                               : 24.000 FPS
    Color space                              : YUV
    Chroma subsampling                       : 4:2:0
    Bit depth                                : 8 bits
    Scan type                                : Progressive
    Bits/(Pixel*Frame)                       : 0.361
    Stream size                              : 11.4 GiB (81%)
    Default                                  : Yes
    Forced                                   : No
    Color range                              : Limited
    Color primaries                          : BT.709
    Transfer characteristics                 : BT.709
    Matrix coefficients                      : BT.709
    
    Audio
    ID                                       : 2
    Format                                   : DTS
    Format/Info                              : Digital Theater Systems
    Format profile                           : MA / Core
    Mode                                     : 16
    Format settings, Endianness              : Big
    Codec ID                                 : A_DTS
    Duration                                 : 1 h 31 min
    Bit rate mode                            : Variable / Constant
    Bit rate                                 : 4 269 kb/s / 1 509 kb/s
    Channel(s)                               : 6 channels
    Channel positions                        : Front: L C R, Side: L R, LFE
    Sampling rate                            : 48.0 kHz
    Frame rate                               : 93.750 FPS (512 spf)
    Bit depth                                : 24 bits
    Compression mode                         : Lossless / Lossy
    Stream size                              : 2.72 GiB (19%)
    Title                                    : DTS-HD MA 5.1
    Language                                 : English
    Default                                  : Yes
    Forced                                   : No
    
    Text #1
    ID                                       : 3
    Format                                   : PGS
    Codec ID                                 : S_HDMV/PGS
    Codec ID/Info                            : Picture based subtitle format used on BDs/HD-DVDs
    Duration                                 : 1 h 25 min
    Bit rate                                 : 18.1 kb/s
    Count of elements                        : 1484
    Stream size                              : 11.0 MiB (0%)
    Title                                    : English (SDH)
    Language                                 : English
    Default                                  : No
    Forced                                   : No
    
    Text #2
    ID                                       : 4
    Format                                   : PGS
    Codec ID                                 : S_HDMV/PGS
    Codec ID/Info                            : Picture based subtitle format used on BDs/HD-DVDs
    Duration                                 : 1 h 25 min
    Bit rate                                 : 18.8 kb/s
    Count of elements                        : 1032
    Stream size                              : 11.5 MiB (0%)
    Title                                    : Dutch
    Language                                 : Dutch
    Default                                  : No
    Forced                                   : No
    
    Text #3
    ID                                       : 5
    Format                                   : PGS
    Codec ID                                 : S_HDMV/PGS
    Codec ID/Info                            : Picture based subtitle format used on BDs/HD-DVDs
    Duration                                 : 1 h 25 min
    Bit rate                                 : 19.1 kb/s
    Count of elements                        : 1134
    Stream size                              : 11.8 MiB (0%)
    Title                                    : French
    Language                                 : French
    Default                                  : No
    Forced                                   : No
    
    Text #4
    ID                                       : 6
    Format                                   : PGS
    Codec ID                                 : S_HDMV/PGS
    Codec ID/Info                            : Picture based subtitle format used on BDs/HD-DVDs
    Duration                                 : 1 h 24 min
    Bit rate                                 : 17.0 kb/s
    Count of elements                        : 1268
    Stream size                              : 10.3 MiB (0%)
    Title                                    : German
    Language                                 : German
    Default                                  : No
    Forced                                   : No
    
    Menu
    00:00:00.000                             : en:Chapter 01
    00:06:59.208                             : en:Chapter 02
    00:16:49.000                             : en:Chapter 03
    00:27:29.333                             : en:Chapter 04
    00:36:30.208                             : en:Chapter 05
    00:45:50.875                             : en:Chapter 06
    00:56:13.792                             : en:Chapter 07
    01:03:02.042                             : en:Chapter 08
    01:12:42.917                             : en:Chapter 09
    01:21:04.708                             : en:Chapter 10
    01:26:40.542                             : en:Chapter 11
    Download:
     
  2. Loading...


Share This Page