Google Drive Elvis.2022.1080p.WEB-DL.DDP5.1.Atmos.H.264-CMRG

Discussion in 'Web-DL / Webrip | 1080p' started by DDLbase, Aug 8, 2022.

  1. DDLbase

    DDLbase Administrator Staff Member

    [​IMG]

    Rating: 7.8/10 based on 58,135 user ratings

    Genres: Biography, Drama, Music

    The life of American music icon Elvis Presley, from his childhood to becoming a rock and movie star in the 1950s while maintaining a complex relationship with his manager, Colonel Tom Parker.

    [​IMG]
    Code:
    Unique ID                   : 231208011323385469858074927287298334346 (0xADF10B11B5ED5A0E721A9A7100AE9E8A)
    Complete name               : Elvis.2022.1080p.WEB-DL.DDP5.1.Atmos.H.264-CMRG.mkv
    Format                      : Matroska
    Format version              : Version 4
    File size                   : 8.22 GiB
    Duration                    : 2 h 39 min
    Overall bit rate            : 7 390 kb/s
    Encoded date                : UTC 2022-08-06 23:00:55
    Writing application         : mkvmerge v61.0.0 ('So') 64-bit
    Writing library             : libebml v1.4.2 + libmatroska v1.6.4
    
    Video
    ID                          : 1
    Format                      : AVC
    Format/Info                 : Advanced Video Codec
    Format profile              : [email protected]
    Format settings             : CABAC / 5 Ref Frames
    Format settings, CABAC      : Yes
    Format settings, Reference  : 5 frames
    Codec ID                    : V_MPEG4/ISO/AVC
    Duration                    : 2 h 39 min
    Bit rate                    : 6 616 kb/s
    Width                       : 1 920 pixels
    Height                      : 802 pixels
    Display aspect ratio        : 2.40:1
    Frame rate mode             : Constant
    Frame rate                  : 23.976 (24000/1001) FPS
    Color space                 : YUV
    Chroma subsampling          : 4:2:0
    Bit depth                   : 8 bits
    Scan type                   : Progressive
    Bits/(Pixel*Frame)          : 0.179
    Stream size                 : 7.36 GiB (90%)
    Language                    : English
    Default                     : Yes
    Forced                      : No
    Color range                 : Limited
    Color primaries             : BT.709
    Transfer characteristics    : BT.709
    Matrix coefficients         : BT.709
    
    Audio
    ID                          : 2
    Format                      : E-AC-3 JOC
    Format/Info                 : Enhanced AC-3 with Joint Object Coding
    Commercial name             : Dolby Digital Plus with Dolby Atmos
    Codec ID                    : A_EAC3
    Duration                    : 2 h 39 min
    Bit rate mode               : Constant
    Bit rate                    : 768 kb/s
    Channel(s)                  : 6 channels
    Channel layout              : L R C LFE Ls Rs
    Sampling rate               : 48.0 kHz
    Frame rate                  : 31.250 FPS (1536 SPF)
    Compression mode            : Lossy
    Stream size                 : 875 MiB (10%)
    Language                    : English
    Service kind                : Complete Main
    Default                     : Yes
    Forced                      : No
    Complexity index            : 16
    Number of dynamic objects   : 15
    Bed channel count           : 1 channel
    Bed channel configuration   : LFE
    
    Text #1
    ID                          : 3
    Format                      : UTF-8
    Codec ID                    : S_TEXT/UTF8
    Codec ID/Info               : UTF-8 Plain Text
    Duration                    : 2 h 39 min
    Bit rate                    : 88 b/s
    Count of elements           : 2827
    Stream size                 : 103 KiB (0%)
    Title                       : SDH
    Language                    : English
    Default                     : No
    Forced                      : No
    
    Text #2
    ID                          : 4
    Format                      : UTF-8
    Codec ID                    : S_TEXT/UTF8
    Codec ID/Info               : UTF-8 Plain Text
    Duration                    : 2 h 39 min
    Bit rate                    : 78 b/s
    Count of elements           : 2537
    Stream size                 : 91.5 KiB (0%)
    Language                    : English
    Default                     : No
    Forced                      : No
    
    Text #3
    ID                          : 5
    Format                      : UTF-8
    Codec ID                    : S_TEXT/UTF8
    Codec ID/Info               : UTF-8 Plain Text
    Duration                    : 2 h 38 min
    Bit rate                    : 94 b/s
    Count of elements           : 1783
    Stream size                 : 109 KiB (0%)
    Language                    : Arabic
    Default                     : No
    Forced                      : No
    
    Text #4
    ID                          : 6
    Format                      : UTF-8
    Codec ID                    : S_TEXT/UTF8
    Codec ID/Info               : UTF-8 Plain Text
    Duration                    : 2 h 38 min
    Bit rate                    : 98 b/s
    Count of elements           : 2124
    Stream size                 : 115 KiB (0%)
    Language                    : Bulgarian
    Default                     : No
    Forced                      : No
    
    Text #5
    ID                          : 7
    Format                      : UTF-8
    Codec ID                    : S_TEXT/UTF8
    Codec ID/Info               : UTF-8 Plain Text
    Duration                    : 2 h 38 min
    Bit rate                    : 64 b/s
    Count of elements           : 2105
    Stream size                 : 74.7 KiB (0%)
    Language                    : Czech
    Default                     : No
    Forced                      : No
    
    Text #6
    ID                          : 8
    Format                      : UTF-8
    Codec ID                    : S_TEXT/UTF8
    Codec ID/Info               : UTF-8 Plain Text
    Duration                    : 2 h 38 min
    Bit rate                    : 45 b/s
    Count of elements           : 1229
    Stream size                 : 52.7 KiB (0%)
    Language                    : Danish
    Default                     : No
    Forced                      : No
    
    Text #7
    ID                          : 9
    Format                      : UTF-8
    Codec ID                    : S_TEXT/UTF8
    Codec ID/Info               : UTF-8 Plain Text
    Duration                    : 2 h 39 min
    Bit rate                    : 64 b/s
    Count of elements           : 1909
    Stream size                 : 75.2 KiB (0%)
    Title                       : SDH
    Language                    : German
    Default                     : No
    Forced                      : No
    
    Text #8
    ID                          : 10
    Format                      : UTF-8
    Codec ID                    : S_TEXT/UTF8
    Codec ID/Info               : UTF-8 Plain Text
    Duration                    : 2 h 38 min
    Bit rate                    : 58 b/s
    Count of elements           : 1697
    Stream size                 : 67.7 KiB (0%)
    Language                    : German
    Default                     : No
    Forced                      : No
    
    Text #9
    ID                          : 11
    Format                      : UTF-8
    Codec ID                    : S_TEXT/UTF8
    Codec ID/Info               : UTF-8 Plain Text
    Duration                    : 2 h 38 min
    Bit rate                    : 88 b/s
    Count of elements           : 1774
    Stream size                 : 102 KiB (0%)
    Language                    : Greek
    Default                     : No
    Forced                      : No
    
    Text #10
    ID                          : 12
    Format                      : UTF-8
    Codec ID                    : S_TEXT/UTF8
    Codec ID/Info               : UTF-8 Plain Text
    Duration                    : 2 h 38 min
    Bit rate                    : 54 b/s
    Count of elements           : 1787
    Stream size                 : 63.6 KiB (0%)
    Language                    : Spanish
    Default                     : No
    Forced                      : No
    
    Text #11
    ID                          : 13
    Format                      : UTF-8
    Codec ID                    : S_TEXT/UTF8
    Codec ID/Info               : UTF-8 Plain Text
    Duration                    : 2 h 38 min
    Bit rate                    : 64 b/s
    Count of elements           : 2101
    Stream size                 : 74.4 KiB (0%)
    Title                       : Latin American
    Language                    : Spanish
    Default                     : No
    Forced                      : No
    
    Text #12
    ID                          : 14
    Format                      : UTF-8
    Codec ID                    : S_TEXT/UTF8
    Codec ID/Info               : UTF-8 Plain Text
    Duration                    : 2 h 38 min
    Bit rate                    : 46 b/s
    Count of elements           : 1766
    Stream size                 : 54.2 KiB (0%)
    Language                    : Estonian
    Default                     : No
    Forced                      : No
    
    Text #13
    ID                          : 15
    Format                      : UTF-8
    Codec ID                    : S_TEXT/UTF8
    Codec ID/Info               : UTF-8 Plain Text
    Duration                    : 2 h 38 min
    Bit rate                    : 53 b/s
    Count of elements           : 1837
    Stream size                 : 62.4 KiB (0%)
    Language                    : Finnish
    Default                     : No
    Forced                      : No
    
    Text #14
    ID                          : 16
    Format                      : UTF-8
    Codec ID                    : S_TEXT/UTF8
    Codec ID/Info               : UTF-8 Plain Text
    Duration                    : 2 h 38 min
    Bit rate                    : 46 b/s
    Count of elements           : 1868
    Stream size                 : 54.1 KiB (0%)
    Language                    : French
    Default                     : No
    Forced                      : No
    
    Text #15
    ID                          : 17
    Format                      : UTF-8
    Codec ID                    : S_TEXT/UTF8
    Codec ID/Info               : UTF-8 Plain Text
    Duration                    : 2 h 38 min
    Bit rate                    : 50 b/s
    Count of elements           : 1459
    Stream size                 : 59.0 KiB (0%)
    Language                    : Hungarian
    Default                     : No
    Forced                      : No
    
    Text #16
    ID                          : 18
    Format                      : UTF-8
    Codec ID                    : S_TEXT/UTF8
    Codec ID/Info               : UTF-8 Plain Text
    Duration                    : 2 h 39 min
    Bit rate                    : 68 b/s
    Count of elements           : 2140
    Stream size                 : 79.3 KiB (0%)
    Language                    : Italian
    Default                     : No
    Forced                      : No
    
    Text #17
    ID                          : 19
    Format                      : UTF-8
    Codec ID                    : S_TEXT/UTF8
    Codec ID/Info               : UTF-8 Plain Text
    Duration                    : 2 h 38 min
    Bit rate                    : 52 b/s
    Count of elements           : 1953
    Stream size                 : 61.2 KiB (0%)
    Language                    : Japanese
    Default                     : No
    Forced                      : No
    
    Text #18
    ID                          : 20
    Format                      : UTF-8
    Codec ID                    : S_TEXT/UTF8
    Codec ID/Info               : UTF-8 Plain Text
    Duration                    : 2 h 38 min
    Bit rate                    : 52 b/s
    Count of elements           : 1917
    Stream size                 : 60.7 KiB (0%)
    Language                    : Korean
    Default                     : No
    Forced                      : No
    
    Text #19
    ID                          : 21
    Format                      : UTF-8
    Codec ID                    : S_TEXT/UTF8
    Codec ID/Info               : UTF-8 Plain Text
    Duration                    : 2 h 38 min
    Bit rate                    : 55 b/s
    Count of elements           : 1769
    Stream size                 : 64.8 KiB (0%)
    Language                    : Lithuanian
    Default                     : No
    Forced                      : No
    
    Text #20
    ID                          : 22
    Format                      : UTF-8
    Codec ID                    : S_TEXT/UTF8
    Codec ID/Info               : UTF-8 Plain Text
    Duration                    : 2 h 38 min
    Bit rate                    : 52 b/s
    Count of elements           : 1755
    Stream size                 : 61.1 KiB (0%)
    Language                    : Latvian
    Default                     : No
    Forced                      : No
    
    Text #21
    ID                          : 23
    Format                      : UTF-8
    Codec ID                    : S_TEXT/UTF8
    Codec ID/Info               : UTF-8 Plain Text
    Duration                    : 2 h 38 min
    Bit rate                    : 48 b/s
    Count of elements           : 1380
    Stream size                 : 56.2 KiB (0%)
    Language                    : Dutch
    Default                     : No
    Forced                      : No
    
    Text #22
    ID                          : 24
    Format                      : UTF-8
    Codec ID                    : S_TEXT/UTF8
    Codec ID/Info               : UTF-8 Plain Text
    Duration                    : 2 h 38 min
    Bit rate                    : 49 b/s
    Count of elements           : 1422
    Stream size                 : 57.9 KiB (0%)
    Language                    : Norwegian
    Default                     : No
    Forced                      : No
    
    Text #23
    ID                          : 25
    Format                      : UTF-8
    Codec ID                    : S_TEXT/UTF8
    Codec ID/Info               : UTF-8 Plain Text
    Duration                    : 2 h 38 min
    Bit rate                    : 54 b/s
    Count of elements           : 1764
    Stream size                 : 63.4 KiB (0%)
    Language                    : Polish
    Default                     : No
    Forced                      : No
    
    Text #24
    ID                          : 26
    Format                      : UTF-8
    Codec ID                    : S_TEXT/UTF8
    Codec ID/Info               : UTF-8 Plain Text
    Duration                    : 2 h 38 min
    Bit rate                    : 66 b/s
    Count of elements           : 2076
    Stream size                 : 77.8 KiB (0%)
    Language                    : Portuguese
    Default                     : No
    Forced                      : No
    
    Text #25
    ID                          : 27
    Format                      : UTF-8
    Codec ID                    : S_TEXT/UTF8
    Codec ID/Info               : UTF-8 Plain Text
    Duration                    : 2 h 38 min
    Bit rate                    : 67 b/s
    Count of elements           : 2104
    Stream size                 : 77.9 KiB (0%)
    Title                       : Brazilian
    Language                    : Portuguese
    Default                     : No
    Forced                      : No
    
    Text #26
    ID                          : 28
    Format                      : UTF-8
    Codec ID                    : S_TEXT/UTF8
    Codec ID/Info               : UTF-8 Plain Text
    Duration                    : 2 h 38 min
    Bit rate                    : 80 b/s
    Count of elements           : 1765
    Stream size                 : 93.7 KiB (0%)
    Language                    : Russian
    Default                     : No
    Forced                      : No
    
    Text #27
    ID                          : 29
    Format                      : UTF-8
    Codec ID                    : S_TEXT/UTF8
    Codec ID/Info               : UTF-8 Plain Text
    Duration                    : 2 h 38 min
    Bit rate                    : 48 b/s
    Count of elements           : 1735
    Stream size                 : 56.3 KiB (0%)
    Language                    : Slovak
    Default                     : No
    Forced                      : No
    
    Text #28
    ID                          : 30
    Format                      : UTF-8
    Codec ID                    : S_TEXT/UTF8
    Codec ID/Info               : UTF-8 Plain Text
    Duration                    : 2 h 38 min
    Bit rate                    : 49 b/s
    Count of elements           : 1654
    Stream size                 : 57.3 KiB (0%)
    Language                    : Slovenian
    Default                     : No
    Forced                      : No
    
    Text #29
    ID                          : 31
    Format                      : UTF-8
    Codec ID                    : S_TEXT/UTF8
    Codec ID/Info               : UTF-8 Plain Text
    Duration                    : 2 h 38 min
    Bit rate                    : 48 b/s
    Count of elements           : 1429
    Stream size                 : 56.8 KiB (0%)
    Language                    : Swedish
    Default                     : No
    Forced                      : No
    
    Text #30
    ID                          : 32
    Format                      : UTF-8
    Codec ID                    : S_TEXT/UTF8
    Codec ID/Info               : UTF-8 Plain Text
    Duration                    : 2 h 38 min
    Bit rate                    : 147 b/s
    Count of elements           : 2129
    Stream size                 : 172 KiB (0%)
    Language                    : Thai
    Default                     : No
    Forced                      : No
    
    Text #31
    ID                          : 33
    Format                      : UTF-8
    Codec ID                    : S_TEXT/UTF8
    Codec ID/Info               : UTF-8 Plain Text
    Duration                    : 2 h 38 min
    Bit rate                    : 62 b/s
    Count of elements           : 2130
    Stream size                 : 72.1 KiB (0%)
    Title                       : zh-Hans
    Language                    : Chinese
    Default                     : No
    Forced                      : No
    
    Text #32
    ID                          : 34
    Format                      : UTF-8
    Codec ID                    : S_TEXT/UTF8
    Codec ID/Info               : UTF-8 Plain Text
    Duration                    : 2 h 38 min
    Bit rate                    : 57 b/s
    Count of elements           : 2067
    Stream size                 : 67.0 KiB (0%)
    Title                       : zh-Hant
    Language                    : Chinese
    Default                     : No
    Forced                      : No
    
    Menu
    00:00:00.000                : Chapter 01
    00:09:06.379                : Chapter 02
    00:14:30.995                : Chapter 03
    00:22:05.700                : Chapter 04
    00:29:46.703                : Chapter 05
    00:38:05.910                : Chapter 06
    00:46:20.447                : Chapter 07
    00:53:33.380                : Chapter 08
    01:03:28.641                : Chapter 09
    01:12:04.407                : Chapter 10
    01:21:09.953                : Chapter 11
    01:30:16.583                : Chapter 12
    01:39:18.708                : Chapter 13
    01:48:44.315                : Chapter 14
    01:57:10.238                : Chapter 15
    02:04:45.485                : Chapter 16
    02:13:03.274                : Chapter 17
    02:22:34.971                : Chapter 18
    02:29:55.203                : Chapter 19
    Download - Mirror 1:
    Download - Mirror 2:
     
  2. Loading...


Share This Page