Google Drive Emily.the.Criminal.2022.2160p.WEB-DL.DD5.1.H.265-EVO

Discussion in 'Web-DL / Webrip | 4K' started by DDLbase, Sep 13, 2022.

New website version: https://ddlbase.com (final revisions being made) New website version: https://ddlbase.com (final revisions being made)
  1. DDLbase

    DDLbase Administrator Staff Member

    [​IMG]

    Rating: 7.1/10 based on 1,954 user ratings

    Genres: Crime, Drama, Thriller

    Down on her luck and saddled with debt, Emily gets involved in a credit card scam that pulls her into the criminal underworld of Los Angeles, ultimately leading to deadly consequences.

    [​IMG]
    Code:
    General
    Unique ID                   : 300065191617896997292568700386789073643 (0xE1BE742AF5CDA9E1EEECEF127560A2EB)
    Complete name               : Emily.the.Criminal.2022.2160p.WEB-DL.DD5.1.H.265-EVO.mkv
    Format                      : Matroska
    Format version              : Version 4
    File size                   : 14.3 GiB
    Duration                    : 1 h 36 min
    Overall bit rate            : 21.1 Mb/s
    Encoded date                : UTC 2022-09-13 05:10:19
    Writing application         : mkvmerge v63.0.0 ('Everything') 64-bit
    Writing library             : libebml v1.4.2 + libmatroska v1.6.4
    
    Video
    ID                          : 1
    Format                      : HEVC
    Format/Info                 : High Efficiency Video Coding
    Format profile              : Main 10@L5@High
    Codec ID                    : V_MPEGH/ISO/HEVC
    Duration                    : 1 h 36 min
    Bit rate                    : 20.7 Mb/s
    Width                       : 3 832 pixels
    Height                      : 1 600 pixels
    Display aspect ratio        : 2.40:1
    Frame rate mode             : Constant
    Frame rate                  : 23.976 FPS
    Color space                 : YUV
    Chroma subsampling          : 4:2:0
    Bit depth                   : 10 bits
    Bits/(Pixel*Frame)          : 0.141
    Stream size                 : 14.0 GiB (98%)
    Default                     : Yes
    Forced                      : No
    Color range                 : Limited
    Color primaries             : BT.709
    Transfer characteristics    : BT.709
    Matrix coefficients         : BT.709
    
    Audio
    ID                          : 2
    Format                      : AC-3
    Format/Info                 : Audio Coding 3
    Commercial name             : Dolby Digital
    Codec ID                    : A_AC3
    Duration                    : 1 h 36 min
    Bit rate mode               : Constant
    Bit rate                    : 384 kb/s
    Channel(s)                  : 6 channels
    Channel layout              : L R C LFE Ls Rs
    Sampling rate               : 48.0 kHz
    Frame rate                  : 31.250 FPS (1536 SPF)
    Compression mode            : Lossy
    Stream size                 : 266 MiB (2%)
    Language                    : English
    Service kind                : Complete Main
    Default                     : Yes
    Forced                      : No
    Download - Mirror 1:
    Download - Mirror 2:
     
  2. Loading...

    Similar Threads - Emily Criminal 2022
    1. DDLbase
      Replies:
      0
      Views:
      1,228

Share This Page