Google Drive Empire.of.Light.2022.2160p.WEB-DL.DDP5.1.Atmos.DV.HDR.H.265-FLUX

Discussion in 'Web-DL / Webrip | 4K' started by DDLbase, Feb 7, 2023.

  1. DDLbase

    DDLbase Administrator Staff Member

    [​IMG]

    Rating: 6.8/10 based on 4,192 user ratings

    Genres: Drama, Romance

    A drama about the power of human connection during turbulent times, set in an English coastal town in the early 1980s.

    [​IMG]
    Code:
    General
    Unique ID                   : 140183245745914396216710861648365434785 (0x69764FA22CD114CA5F080E4DF92537A1)
    Complete name               : Empire.of.Light.2022.2160p.WEB-DL.DDP5.1.Atmos.DV.HDR.H.265-FLUX.mkv
    Format                      : Matroska
    Format version              : Version 4
    File size                   : 19.8 GiB
    Duration                    : 1 h 54 min
    Overall bit rate            : 24.7 Mb/s
    Writing application         : mkvmerge v73.0.0 ('25 or 6 to 4') 64-bit
    Writing library             : libebml v1.4.4 + libmatroska v1.7.1
    
    Video
    ID                          : 1
    Format                      : HEVC
    Format/Info                 : High Efficiency Video Coding
    Format profile              : Main [email protected]@High
    HDR format                  : Dolby Vision, Version 1.0, dvhe.08.06, BL+RPU, HDR10 compatible / SMPTE ST 2094 App 4, Version 1, HDR10+ Profile A compatible
    Codec ID                    : V_MPEGH/ISO/HEVC
    Duration                    : 1 h 54 min
    Bit rate                    : 23.9 Mb/s
    Width                       : 3 840 pixels
    Height                      : 1 608 pixels
    Display aspect ratio        : 2.40:1
    Frame rate mode             : Constant
    Frame rate                  : 23.976 (24000/1001) FPS
    Color space                 : YUV
    Chroma subsampling          : 4:2:0 (Type 2)
    Bit depth                   : 10 bits
    Bits/(Pixel*Frame)          : 0.161
    Stream size                 : 19.2 GiB (97%)
    Default                     : Yes
    Forced                      : No
    Color range                 : Limited
    Color primaries             : BT.2020
    Transfer characteristics    : PQ
    Matrix coefficients         : BT.2020 non-constant
    Mastering display color pri : BT.2020
    Mastering display luminance : min: 0.0050 cd/m2, max: 1000 cd/m2
    Maximum Content Light Level : 1250 cd/m2
    Maximum Frame-Average Light : 126 cd/m2
    
    Audio
    ID                          : 2
    Format                      : E-AC-3 JOC
    Format/Info                 : Enhanced AC-3 with Joint Object Coding
    Commercial name             : Dolby Digital Plus with Dolby Atmos
    Codec ID                    : A_EAC3
    Duration                    : 1 h 54 min
    Bit rate mode               : Constant
    Bit rate                    : 768 kb/s
    Channel(s)                  : 6 channels
    Channel layout              : L R C LFE Ls Rs
    Sampling rate               : 48.0 kHz
    Frame rate                  : 31.250 FPS (1536 SPF)
    Compression mode            : Lossy
    Stream size                 : 631 MiB (3%)
    Language                    : English
    Service kind                : Complete Main
    Default                     : Yes
    Forced                      : No
    Complexity index            : 16
    Number of dynamic objects   : 15
    Bed channel count           : 1 channel
    Bed channel configuration   : LFE
    
    Text #1
    ID                          : 3
    Format                      : UTF-8
    Codec ID                    : S_TEXT/UTF8
    Codec ID/Info               : UTF-8 Plain Text
    Duration                    : 1 h 45 min
    Bit rate                    : 44 b/s
    Frame rate                  : 0.205 FPS
    Count of elements           : 1296
    Stream size                 : 34.7 KiB (0%)
    Language                    : English
    Default                     : No
    Forced                      : No
    
    Text #2
    ID                          : 4
    Format                      : UTF-8
    Codec ID                    : S_TEXT/UTF8
    Codec ID/Info               : UTF-8 Plain Text
    Duration                    : 1 h 48 min
    Bit rate                    : 54 b/s
    Frame rate                  : 0.253 FPS
    Count of elements           : 1649
    Stream size                 : 43.1 KiB (0%)
    Title                       : CC
    Language                    : English
    Default                     : No
    Forced                      : No
    
    Text #3
    ID                          : 5
    Format                      : UTF-8
    Codec ID                    : S_TEXT/UTF8
    Codec ID/Info               : UTF-8 Plain Text
    Duration                    : 1 h 48 min
    Bit rate                    : 43 b/s
    Frame rate                  : 0.203 FPS
    Count of elements           : 1322
    Stream size                 : 34.9 KiB (0%)
    Title                       : Latin American
    Language                    : Spanish
    Default                     : No
    Forced                      : No
    
    Text #4
    ID                          : 6
    Format                      : UTF-8
    Codec ID                    : S_TEXT/UTF8
    Codec ID/Info               : UTF-8 Plain Text
    Duration                    : 1 h 53 min
    Bit rate                    : 39 b/s
    Frame rate                  : 0.193 FPS
    Count of elements           : 1318
    Stream size                 : 33.1 KiB (0%)
    Title                       : Canadian
    Language                    : French
    Default                     : No
    Forced                      : No
    
    Menu
    00:00:00.000                : en:Chapter 01
    00:04:48.705                : en:Chapter 02
    00:06:26.678                : en:Chapter 03
    00:11:27.020                : en:Chapter 04
    00:17:37.140                : en:Chapter 05
    00:22:16.836                : en:Chapter 06
    00:24:39.813                : en:Chapter 07
    00:32:21.316                : en:Chapter 08
    00:39:13.687                : en:Chapter 09
    00:44:04.769                : en:Chapter 10
    00:51:06.941                : en:Chapter 11
    00:57:17.562                : en:Chapter 12
    01:01:04.873                : en:Chapter 13
    01:09:05.311                : en:Chapter 14
    01:16:07.567                : en:Chapter 15
    01:23:05.652                : en:Chapter 16
    01:30:28.053                : en:Chapter 17
    01:38:43.757                : en:Chapter 18
    01:42:59.220                : en:Chapter 19
    01:49:27.567                : en:Chapter 20
    Download - Mirror 1:
    Download - Mirror 2:
    Download - Mirror 3:
     
  2. Loading...


Share This Page