Google Drive Enforcement.2021.1080p.WEB-DL.DD2.0.H.264-EVO

Discussion in 'Web-DL / Webrip | 1080p' started by DDLbase, Mar 21, 2021.

  1. DDLbase

    DDLbase Administrator Staff Member

    [​IMG]

    Rating: 7.0/10 based on 1,310 user ratings

    Genres: Action, Crime

    Jens and Mike, two police officers on routine patrol, find themselves trapped in a maze of buildings when unrest spreads.

    [​IMG]
    Code:
    General
    Unique ID                   : 294775780137709112848139689019728930368 (0xDDC3C00C1B4AD5217353DC304E372640)
    Complete name               : Enforcement.2021.1080p.WEB-DL.DD2.0.H.264-EVO.mkv
    Format                      : Matroska
    Format version              : Version 4
    File size                   : 3.61 GiB
    Duration                    : 1 h 48 min
    Overall bit rate            : 4 777 kb/s
    Encoded date                : UTC 2021-03-19 16:57:21
    Writing application         : mkvmerge v35.0.0 ('All The Love In The World') 64-bit
    Writing library             : libebml v1.3.9 + libmatroska v1.5.2
    
    Video
    ID                          : 2
    Format                      : AVC
    Format/Info                 : Advanced Video Codec
    Format profile              : [email protected]
    Format settings             : CABAC / 5 Ref Frames
    Format settings, CABAC      : Yes
    Format settings, Reference  : 5 frames
    Codec ID                    : V_MPEG4/ISO/AVC
    Duration                    : 1 h 48 min
    Bit rate                    : 4 583 kb/s
    Width                       : 1 920 pixels
    Height                      : 802 pixels
    Display aspect ratio        : 2.40:1
    Frame rate mode             : Constant
    Frame rate                  : 23.976 FPS
    Color space                 : YUV
    Chroma subsampling          : 4:2:0
    Bit depth                   : 8 bits
    Scan type                   : Progressive
    Bits/(Pixel*Frame)          : 0.124
    Stream size                 : 3.46 GiB (96%)
    Language                    : English
    Default                     : Yes
    Forced                      : No
    Color range                 : Limited
    Color primaries             : BT.709
    Transfer characteristics    : BT.709
    Matrix coefficients         : BT.709
    
    Audio
    ID                          : 1
    Format                      : AC-3
    Format/Info                 : Audio Coding 3
    Commercial name             : Dolby Digital
    Codec ID                    : A_AC3
    Duration                    : 1 h 48 min
    Bit rate mode               : Constant
    Bit rate                    : 192 kb/s
    Channel(s)                  : 2 channels
    Channel layout              : L R
    Sampling rate               : 48.0 kHz
    Frame rate                  : 31.250 FPS (1536 SPF)
    Compression mode            : Lossy
    Stream size                 : 149 MiB (4%)
    Service kind                : Complete Main
    Default                     : Yes
    Forced                      : No
    
    Menu
    00:00:00.000                : en:1
    00:06:21.881                : en:2
    00:14:19.233                : en:3
    00:18:13.175                : en:4
    00:23:43.128                : en:5
    00:30:23.319                : en:6
    00:39:44.671                : en:7
    00:43:52.250                : en:8
    00:51:08.351                : en:9
    00:59:41.030                : en:10
    01:04:09.131                : en:11
    01:08:38.817                : en:12
    01:14:08.479                : en:13
    01:19:17.162                : en:14
    01:26:43.857                : en:15
    01:38:55.462                : en:16
    Download - Mirror 1:
    Download - Mirror 2:
     
  2. Loading...


Share This Page