MEGA Ernest.Goes.to.Jail.1990.BluRay.1080p.DD.2.0.AVC.REMUX-FraMeSToR

Discussion in 'BD REMUX | 1080p' started by DDLbase, Jun 10, 2019.

  1. DDLbase

    DDLbase Administrator Staff Member

    [​IMG]

    Ernest P. Worrell is assigned to jury duty, where a crooked lawyer notices a resemblance with crime boss Mr. Nash, and arranges a switch. Nash assumes Ernest's job as a bank employee, while Ernest undergoes Nash's sentence to the electric chair. But instead of killing him, the electrocution gives Ernest superhuman powers, enabling him to escape from jail and foil Nash's attempt to rob the bank.

    [​IMG][​IMG][​IMG][​IMG][​IMG][​IMG]

    Code:
    Format                                   : Matroska
    Format version                           : Version 4 / Version 2
    File size                                : 17.1 GiB
    Duration                                 : 1 h 21 min
    Overall bit rate mode                    : Variable
    Overall bit rate                         : 30.2 Mb/s
    Movie name                               : Ernest Goes to Jail
    Encoded date                             : UTC 2017-07-27 19:23:31
    Writing application                      : mkvmerge v9.6.0 ('Slave To Your Mind') 64bit
    Writing library                          : libebml v1.3.4 + libmatroska v1.4.5
    
    Video
    ID                                       : 1
    Format                                   : AVC
    Format/Info                              : Advanced Video Codec
    Format profile                           : [email protected]
    Format settings, CABAC                   : Yes
    Format settings, ReFrames                : 3 frames
    Format settings, GOP                     : M=3, N=12
    Codec ID                                 : V_MPEG4/ISO/AVC
    Duration                                 : 1 h 21 min
    Bit rate mode                            : Variable
    Bit rate                                 : 30.0 Mb/s
    Maximum bit rate                         : 35.0 Mb/s
    Width                                    : 1 920 pixels
    Height                                   : 1 080 pixels
    Display aspect ratio                     : 16:9
    Frame rate mode                          : Constant
    Frame rate                               : 23.976 (24000/1001) FPS
    Standard                                 : NTSC
    Color space                              : YUV
    Chroma subsampling                       : 4:2:0
    Bit depth                                : 8 bits
    Scan type                                : Progressive
    Bits/(Pixel*Frame)                       : 0.603
    Stream size                              : 17.0 GiB (99%)
    Default                                  : Yes
    Forced                                   : No
    Color range                              : Limited
    Color primaries                          : BT.709
    Transfer characteristics                 : BT.709
    Matrix coefficients                      : BT.709
    
    Audio
    ID                                       : 2
    Format                                   : AC-3
    Format/Info                              : Audio Coding 3
    Mode extension                           : CM (complete main)
    Format settings, Endianness              : Big
    Codec ID                                 : A_AC3
    Duration                                 : 1 h 21 min
    Bit rate mode                            : Constant
    Bit rate                                 : 192 kb/s
    Channel(s)                               : 2 channels
    Channel positions                        : Front: L R
    Sampling rate                            : 48.0 kHz
    Frame rate                               : 31.250 FPS (1536 spf)
    Bit depth                                : 16 bits
    Compression mode                         : Lossy
    Stream size                              : 112 MiB (1%)
    Title                                    : AC3 2.0
    Language                                 : English
    Default                                  : Yes
    Forced                                   : No
    
    Menu
    00:00:00.000                             : en:Main Titles
    00:07:39.084                             : en:On The Job
    00:13:45.700                             : en:The Corporate Ladder
    00:21:31.207                             : en:The Big Date
    00:27:41.076                             : en:Jury Duty
    00:36:54.879                             : en:The Switch
    00:43:24.894                             : en:A New Weapon
    00:51:25.624                             : en:Escape
    00:57:53.637                             : en:Electroman
    01:04:27.238                             : en:Double Trouble
    01:08:33.401                             : en:The Heist
    01:17:45.327                             : en:End Titles
    Download:
     
  2. Loading...


Share This Page