MEGA Ernest.Scared.Stupid.1991.BluRay.1080p.DD.2.0.AVC.REMUX-FraMeSToR

Discussion in 'BD REMUX | 1080p' started by DDLbase, Jun 9, 2019.

  1. DDLbase

    DDLbase Administrator Staff Member

    [​IMG]

    After a misunderstanding, Ernest P. Worrell unleashes an evil troll on Halloween.

    [​IMG][​IMG][​IMG][​IMG][​IMG][​IMG]

    Code:
    Format                                   : Matroska
    Format version                           : Version 4 / Version 2
    File size                                : 19.7 GiB
    Duration                                 : 1 h 32 min
    Overall bit rate mode                    : Variable
    Overall bit rate                         : 30.5 Mb/s
    Movie name                               : Ernest Scared Stupid
    Encoded date                             : UTC 2017-07-28 19:11:17
    Writing application                      : mkvmerge v9.6.0 ('Slave To Your Mind') 64bit
    Writing library                          : libebml v1.3.4 + libmatroska v1.4.5
    
    Video
    ID                                       : 1
    Format                                   : AVC
    Format/Info                              : Advanced Video Codec
    Format profile                           : [email protected]
    Format settings, CABAC                   : Yes
    Format settings, ReFrames                : 3 frames
    Format settings, GOP                     : M=3, N=12
    Codec ID                                 : V_MPEG4/ISO/AVC
    Duration                                 : 1 h 32 min
    Bit rate mode                            : Variable
    Bit rate                                 : 30.3 Mb/s
    Maximum bit rate                         : 35.0 Mb/s
    Width                                    : 1 920 pixels
    Height                                   : 1 080 pixels
    Display aspect ratio                     : 16:9
    Frame rate mode                          : Constant
    Frame rate                               : 23.976 (24000/1001) FPS
    Standard                                 : NTSC
    Color space                              : YUV
    Chroma subsampling                       : 4:2:0
    Bit depth                                : 8 bits
    Scan type                                : Progressive
    Bits/(Pixel*Frame)                       : 0.610
    Stream size                              : 19.6 GiB (99%)
    Default                                  : Yes
    Forced                                   : No
    Color range                              : Limited
    Color primaries                          : BT.709
    Transfer characteristics                 : BT.709
    Matrix coefficients                      : BT.709
    
    Audio
    ID                                       : 2
    Format                                   : AC-3
    Format/Info                              : Audio Coding 3
    Mode extension                           : CM (complete main)
    Format settings, Endianness              : Big
    Codec ID                                 : A_AC3
    Duration                                 : 1 h 32 min
    Bit rate mode                            : Constant
    Bit rate                                 : 192 kb/s
    Channel(s)                               : 2 channels
    Channel positions                        : Front: L R
    Sampling rate                            : 48.0 kHz
    Frame rate                               : 31.250 FPS (1536 spf)
    Bit depth                                : 16 bits
    Compression mode                         : Lossy
    Stream size                              : 127 MiB (1%)
    Title                                    : AC3 2.0
    Language                                 : English
    Default                                  : Yes
    Forced                                   : No
    
    Menu
    00:00:00.000                             : en:The Legend
    00:08:31.261                             : en:Old Lady Hackmore
    00:15:24.465                             : en:The Haunted Tree House
    00:21:59.652                             : en:Awakened
    00:31:49.866                             : en:Troll Alert!
    00:39:08.346                             : en:Troll Bait
    00:45:16.297                             : en:Halloween Party
    00:51:54.194                             : en:New Breed
    00:59:29.065                             : en:The Battle
    01:09:42.762                             : en:Unconditional Love
    01:20:11.473                             : en:Troll Attack
    01:29:15.767                             : en:End Titles
    Download:
     
  2. Loading...

    Similar Threads - Ernest Scared Stupid
    1. DDLbase
      Replies:
      0
      Views:
      752

Share This Page