Google Drive Eternals.2021.UHD.2160p.Bluray.TrueHD.Atmos.7.1.HDR10.HEVC.X265-FZHD

Discussion in 'BDRip | 4K' started by DDLbase, Jan 29, 2022.

  1. DDLbase

    DDLbase Administrator Staff Member

    [​IMG]

    Rating: 6.5/10 based on 228.491 user ratings

    Genres: Action, Adventure, Fantasy

    The saga of the Eternals, a race of immortal beings who lived on Earth and shaped its history and civilizations.

    [​IMG]
    Code:
    General
    Unique ID                   : 142493294262435060963119353443898192353 (0x6B3335D198BBDB884B9D45C787F171E1)
    Complete name               : Eternals.2021.UHD.2160p.Bluray.TrueHD.Atmos.7.1.HDR10.HEVC.X265-FZHD.mkv
    Format                      : Matroska / 2160P HDR 10 Bluray
    Format version              : Version 4
    File size                   : 33.7 GiB
    Duration                    : 2 h 35 min
    Overall bit rate mode       : Variable
    Overall bit rate            : 31.0 Mb/s
    Movie name                  : Eternals (2021)
    Encoded date                : UTC 2022-01-28 15:08:22
    Writing application         : mkvmerge v59.0.0 ('Shining Star') 64-bit
    Writing library             : libebml v1.4.2 + libmatroska v1.6.4
    Cover                       : Yes
    Attachments                 : cover.jpg
    Encoder / Releaer           : HEVCode / FZHD Group
    Source                      : Eternals.2021.2160p.EUR.UHD.Blu-ray.HEVC.HDR.TrueHD.Atmos.7.1-ESiR
    Writting Library            : ATEME Titan File 3.9.6 (4.9.6.2)
    
    Video
    ID                          : 1
    Format                      : HEVC
    Format/Info                 : High Efficiency Video Coding
    Format profile              : Main [email protected]@High
    HDR format                  : SMPTE ST 2094 App 4, Version 1, HDR10+ Profile B compatible
    Codec ID                    : V_MPEGH/ISO/HEVC
    Duration                    : 2 h 35 min
    Bit rate                    : 25.3 Mb/s
    Width                       : 3 840 pixels
    Height                      : 1 600 pixels
    Display aspect ratio        : 2.40:1
    Frame rate mode             : Constant
    Frame rate                  : 23.976 (24000/1001) FPS
    Color space                 : YUV
    Chroma subsampling          : 4:2:0 (Type 2)
    Bit depth                   : 10 bits
    Bits/(Pixel*Frame)          : 0.172
    Stream size                 : 27.5 GiB (82%)
    Title                       : MARVEL STUDIOS ETERNALS - ULTRA HD
    Language                    : English
    Default                     : Yes
    Forced                      : No
    Color range                 : Limited
    Color primaries             : BT.2020
    Transfer characteristics    : PQ
    Matrix coefficients         : BT.2020 non-constant
    Mastering display color pri : Display P3
    Mastering display luminance : min: 0.0050 cd/m2, max: 1000 cd/m2
    
    Audio #1
    ID                          : 2
    Format                      : MLP FBA 16-ch
    Format/Info                 : Meridian Lossless Packing FBA with 16-channel presentation
    Commercial name             : Dolby TrueHD with Dolby Atmos
    Codec ID                    : A_TRUEHD
    Duration                    : 2 h 35 min
    Bit rate mode               : Variable
    Bit rate                    : 4 396 kb/s
    Maximum bit rate            : 2 400 kb/s
    Channel(s)                  : 8 channels
    Channel layout              : L R C LFE Ls Rs Lb Rb
    Sampling rate               : 48.0 kHz
    Frame rate                  : 1 200.000 FPS (40 SPF)
    Compression mode            : Lossless
    Stream size                 : 4.79 GiB (14%)
    Title                       : Surround 7.1
    Language                    : English
    Default                     : No
    Forced                      : No
    Number of dynamic objects   : 13
    Bed channel count           : 1 channel
    Bed channel configuration   : LFE
    
    Audio #2
    ID                          : 3
    Format                      : AC-3
    Format/Info                 : Audio Coding 3
    Commercial name             : Dolby Digital
    Codec ID                    : A_AC3
    Duration                    : 2 h 35 min
    Bit rate mode               : Constant
    Bit rate                    : 640 kb/s
    Channel(s)                  : 6 channels
    Channel layout              : L R C LFE Ls Rs
    Sampling rate               : 48.0 kHz
    Frame rate                  : 31.250 FPS (1536 SPF)
    Compression mode            : Lossy
    Stream size                 : 713 MiB (2%)
    Title                       : Surround 5.1
    Language                    : English
    Service kind                : Complete Main
    Default                     : No
    Forced                      : No
    
    Text #1
    ID                          : 4
    Format                      : PGS
    Codec ID                    : S_HDMV/PGS
    Codec ID/Info               : Picture based subtitle format used on BDs/HD-DVDs
    Duration                    : 2 h 35 min
    Bit rate                    : 34.8 kb/s
    Count of elements           : 4427
    Stream size                 : 38.7 MiB (0%)
    Language                    : English
    Default                     : No
    Forced                      : No
    
    Text #2
    ID                          : 5
    Format                      : PGS
    Codec ID                    : S_HDMV/PGS
    Codec ID/Info               : Picture based subtitle format used on BDs/HD-DVDs
    Duration                    : 2 h 35 min
    Bit rate                    : 1 101 b/s
    Count of elements           : 175
    Stream size                 : 1.22 MiB (0%)
    Language                    : English
    Default                     : No
    Forced                      : No
    
    Text #3
    ID                          : 6
    Format                      : PGS
    Codec ID                    : S_HDMV/PGS
    Codec ID/Info               : Picture based subtitle format used on BDs/HD-DVDs
    Duration                    : 2 h 35 min
    Bit rate                    : 22.6 kb/s
    Count of elements           : 3137
    Stream size                 : 25.1 MiB (0%)
    Language                    : French
    Default                     : No
    Forced                      : No
    
    Text #4
    ID                          : 7
    Format                      : PGS
    Codec ID                    : S_HDMV/PGS
    Codec ID/Info               : Picture based subtitle format used on BDs/HD-DVDs
    Duration                    : 2 h 35 min
    Bit rate                    : 1 314 b/s
    Count of elements           : 197
    Stream size                 : 1.46 MiB (0%)
    Language                    : French
    Default                     : No
    Forced                      : No
    
    Text #5
    ID                          : 8
    Format                      : PGS
    Codec ID                    : S_HDMV/PGS
    Codec ID/Info               : Picture based subtitle format used on BDs/HD-DVDs
    Duration                    : 2 h 35 min
    Bit rate                    : 24.7 kb/s
    Count of elements           : 3259
    Stream size                 : 27.5 MiB (0%)
    Language                    : Spanish
    Default                     : No
    Forced                      : No
    
    Text #6
    ID                          : 9
    Format                      : PGS
    Codec ID                    : S_HDMV/PGS
    Codec ID/Info               : Picture based subtitle format used on BDs/HD-DVDs
    Duration                    : 2 h 35 min
    Bit rate                    : 1 293 b/s
    Count of elements           : 175
    Stream size                 : 1.44 MiB (0%)
    Language                    : Spanish
    Default                     : No
    Forced                      : No
    
    Text #7
    ID                          : 10
    Format                      : PGS
    Codec ID                    : S_HDMV/PGS
    Codec ID/Info               : Picture based subtitle format used on BDs/HD-DVDs
    Duration                    : 2 h 35 min
    Bit rate                    : 36.6 kb/s
    Count of elements           : 3156
    Stream size                 : 40.8 MiB (0%)
    Language                    : Portuguese
    Default                     : No
    Forced                      : No
    
    Text #8
    ID                          : 11
    Format                      : PGS
    Codec ID                    : S_HDMV/PGS
    Codec ID/Info               : Picture based subtitle format used on BDs/HD-DVDs
    Duration                    : 2 h 35 min
    Bit rate                    : 37.9 kb/s
    Count of elements           : 3304
    Stream size                 : 42.2 MiB (0%)
    Title                       : Brasilian
    Language                    : Portuguese
    Default                     : No
    Forced                      : No
    
    Text #9
    ID                          : 12
    Format                      : PGS
    Codec ID                    : S_HDMV/PGS
    Codec ID/Info               : Picture based subtitle format used on BDs/HD-DVDs
    Duration                    : 2 h 35 min
    Bit rate                    : 36.9 kb/s
    Count of elements           : 3168
    Stream size                 : 41.1 MiB (0%)
    Language                    : Romanian
    Default                     : No
    Forced                      : No
    
    Text #10
    ID                          : 13
    Format                      : PGS
    Codec ID                    : S_HDMV/PGS
    Codec ID/Info               : Picture based subtitle format used on BDs/HD-DVDs
    Duration                    : 2 h 35 min
    Bit rate                    : 23.8 kb/s
    Count of elements           : 3007
    Stream size                 : 26.5 MiB (0%)
    Language                    : German
    Default                     : No
    Forced                      : No
    
    Text #11
    ID                          : 14
    Format                      : PGS
    Codec ID                    : S_HDMV/PGS
    Codec ID/Info               : Picture based subtitle format used on BDs/HD-DVDs
    Duration                    : 2 h 35 min
    Bit rate                    : 1 153 b/s
    Count of elements           : 165
    Stream size                 : 1.28 MiB (0%)
    Language                    : German
    Default                     : No
    Forced                      : No
    
    Text #12
    ID                          : 15
    Format                      : PGS
    Codec ID                    : S_HDMV/PGS
    Codec ID/Info               : Picture based subtitle format used on BDs/HD-DVDs
    Duration                    : 2 h 35 min
    Bit rate                    : 25.9 kb/s
    Count of elements           : 3269
    Stream size                 : 28.8 MiB (0%)
    Language                    : Italian
    Default                     : No
    Forced                      : No
    
    Text #13
    ID                          : 16
    Format                      : PGS
    Codec ID                    : S_HDMV/PGS
    Codec ID/Info               : Picture based subtitle format used on BDs/HD-DVDs
    Duration                    : 2 h 35 min
    Bit rate                    : 1 287 b/s
    Count of elements           : 193
    Stream size                 : 1.43 MiB (0%)
    Language                    : Italian
    Default                     : No
    Forced                      : No
    
    Text #14
    ID                          : 17
    Format                      : PGS
    Codec ID                    : S_HDMV/PGS
    Codec ID/Info               : Picture based subtitle format used on BDs/HD-DVDs
    Duration                    : 2 h 35 min
    Bit rate                    : 24.9 kb/s
    Count of elements           : 2802
    Stream size                 : 27.7 MiB (0%)
    Language                    : Dutch
    Default                     : No
    Forced                      : No
    
    Text #15
    ID                          : 18
    Format                      : PGS
    Codec ID                    : S_HDMV/PGS
    Codec ID/Info               : Picture based subtitle format used on BDs/HD-DVDs
    Duration                    : 2 h 35 min
    Bit rate                    : 22.6 kb/s
    Count of elements           : 2218
    Stream size                 : 25.2 MiB (0%)
    Language                    : Danish
    Default                     : No
    Forced                      : No
    
    Text #16
    ID                          : 19
    Format                      : PGS
    Codec ID                    : S_HDMV/PGS
    Codec ID/Info               : Picture based subtitle format used on BDs/HD-DVDs
    Duration                    : 2 h 35 min
    Bit rate                    : 27.1 kb/s
    Count of elements           : 3334
    Stream size                 : 30.1 MiB (0%)
    Language                    : Finnish
    Default                     : No
    Forced                      : No
    
    Text #17
    ID                          : 20
    Format                      : PGS
    Codec ID                    : S_HDMV/PGS
    Codec ID/Info               : Picture based subtitle format used on BDs/HD-DVDs
    Duration                    : 2 h 35 min
    Bit rate                    : 24.0 kb/s
    Count of elements           : 3308
    Stream size                 : 26.8 MiB (0%)
    Language                    : Norwegian Bokmal
    Default                     : No
    Forced                      : No
    
    Text #18
    ID                          : 21
    Format                      : PGS
    Codec ID                    : S_HDMV/PGS
    Codec ID/Info               : Picture based subtitle format used on BDs/HD-DVDs
    Duration                    : 2 h 35 min
    Bit rate                    : 23.5 kb/s
    Count of elements           : 2634
    Stream size                 : 26.2 MiB (0%)
    Language                    : Swedish
    Default                     : No
    Forced                      : No
    
    Text #19
    ID                          : 22
    Format                      : PGS
    Codec ID                    : S_HDMV/PGS
    Codec ID/Info               : Picture based subtitle format used on BDs/HD-DVDs
    Duration                    : 2 h 35 min
    Bit rate                    : 37.9 kb/s
    Count of elements           : 3288
    Stream size                 : 42.1 MiB (0%)
    Language                    : Icelandic
    Default                     : No
    Forced                      : No
    
    Text #20
    ID                          : 23
    Format                      : PGS
    Codec ID                    : S_HDMV/PGS
    Codec ID/Info               : Picture based subtitle format used on BDs/HD-DVDs
    Duration                    : 2 h 35 min
    Bit rate                    : 30.8 kb/s
    Count of elements           : 3354
    Stream size                 : 34.2 MiB (0%)
    Language                    : Chinese
    Default                     : No
    Forced                      : No
    
    Text #21
    ID                          : 24
    Format                      : PGS
    Codec ID                    : S_HDMV/PGS
    Codec ID/Info               : Picture based subtitle format used on BDs/HD-DVDs
    Duration                    : 2 h 35 min
    Bit rate                    : 35.0 kb/s
    Count of elements           : 3282
    Stream size                 : 38.9 MiB (0%)
    Language                    : Czech
    Default                     : No
    Forced                      : No
    
    Text #22
    ID                          : 25
    Format                      : PGS
    Codec ID                    : S_HDMV/PGS
    Codec ID/Info               : Picture based subtitle format used on BDs/HD-DVDs
    Duration                    : 2 h 35 min
    Bit rate                    : 35.3 kb/s
    Count of elements           : 3204
    Stream size                 : 39.3 MiB (0%)
    Language                    : Polish
    Default                     : No
    Forced                      : No
    
    Text #23
    ID                          : 26
    Format                      : PGS
    Codec ID                    : S_HDMV/PGS
    Codec ID/Info               : Picture based subtitle format used on BDs/HD-DVDs
    Duration                    : 2 h 35 min
    Bit rate                    : 36.7 kb/s
    Count of elements           : 2482
    Stream size                 : 40.9 MiB (0%)
    Language                    : Serbian
    Default                     : No
    Forced                      : No
    
    Text #24
    ID                          : 27
    Format                      : PGS
    Codec ID                    : S_HDMV/PGS
    Codec ID/Info               : Picture based subtitle format used on BDs/HD-DVDs
    Duration                    : 2 h 35 min
    Bit rate                    : 32.1 kb/s
    Count of elements           : 3304
    Stream size                 : 35.7 MiB (0%)
    Language                    : Slovenian
    Default                     : No
    Forced                      : No
    
    Menu
    00:00:00.000                : :Chapter 01
    00:06:42.902                : :Chapter 02
    00:20:22.888                : :Chapter 03
    00:31:11.703                : :Chapter 04
    00:35:04.435                : :Chapter 05
    00:43:01.245                : :Chapter 06
    00:49:29.007                : :Chapter 07
    00:55:49.804                : :Chapter 08
    01:02:29.537                : :Chapter 09
    01:07:56.530                : :Chapter 10
    01:10:39.568                : :Chapter 11
    01:18:58.191                : :Chapter 12
    01:24:36.780                : :Chapter 13
    01:29:56.516                : :Chapter 14
    01:36:02.840                : :Chapter 15
    01:42:47.578                : :Chapter 16
    01:46:27.589                : :Chapter 17
    01:51:51.162                : :Chapter 18
    01:55:57.951                : :Chapter 19
    02:01:46.132                : :Chapter 20
    02:06:30.165                : :Chapter 21
    02:11:41.727                : :Chapter 22
    02:16:32.350                : :Chapter 23
    02:23:10.665                : :Chapter 24
    02:25:45.027                : :Chapter 25
    02:27:56.492                : :Chapter 26
    02:34:26.882                : :Chapter 27
    Download - Mirror 1:
    Download - Mirror 2:
     
  2. Loading...


Share This Page