Google Drive Everything.Everywhere.All.At.Once.2022.2160p.WEB-DL.DDP5.1.Atmos.HDR.H.265-EVO

Discussion in 'Web-DL / Webrip | 4K' started by DDLbase, Jun 9, 2022.

  1. DDLbase

    DDLbase Administrator Staff Member

    [​IMG]

    Rating: 8.4/10 based on 88,110 user ratings

    Genres: Action, Adventure, Comedy

    An aging Chinese immigrant is swept up in an insane adventure, where she alone can save the world by exploring other universes connecting with the lives she could have led.

    [​IMG]
    Code:
    General
    Unique ID                   : 203526209702847279063514805440264824770 (0x991DB8E05BB52D4D9EEC6763F46867C2)
    Complete name               : Everything.Everywhere.All.At.Once.2022.2160p.WEB-DL.DDP5.1.Atmos.HDR.H.265-EVO.mkv
    Format                      : Matroska
    Format version              : Version 4
    File size                   : 14.7 GiB
    Duration                    : 2 h 19 min
    Overall bit rate            : 15.1 Mb/s
    Encoded date                : UTC 2022-06-07 04:02:06
    Writing application         : mkvmerge v63.0.0 ('Everything') 64-bit
    Writing library             : libebml v1.4.2 + libmatroska v1.6.4
    
    Video
    ID                          : 1
    Format                      : HEVC
    Format/Info                 : High Efficiency Video Coding
    Format profile              : Main [email protected]@High
    HDR format                  : SMPTE ST 2086, HDR10 compatible
    Codec ID                    : V_MPEGH/ISO/HEVC
    Duration                    : 2 h 19 min
    Bit rate                    : 14.3 Mb/s
    Width                       : 3 836 pixels
    Height                      : 2 068 pixels
    Display aspect ratio        : 1.85:1
    Frame rate mode             : Constant
    Frame rate                  : 23.976 FPS
    Color space                 : YUV
    Chroma subsampling          : 4:2:0 (Type 2)
    Bit depth                   : 10 bits
    Bits/(Pixel*Frame)          : 0.075
    Stream size                 : 14.0 GiB (95%)
    Default                     : Yes
    Forced                      : No
    Color range                 : Limited
    Color primaries             : BT.2020
    Transfer characteristics    : PQ
    Matrix coefficients         : BT.2020 non-constant
    Mastering display color pri : BT.2020
    Mastering display luminance : min: 0.0050 cd/m2, max: 1000 cd/m2
    Maximum Content Light Level : 1225 cd/m2
    Maximum Frame-Average Light : 204 cd/m2
    
    Audio
    ID                          : 2
    Format                      : E-AC-3 JOC
    Format/Info                 : Enhanced AC-3 with Joint Object Coding
    Commercial name             : Dolby Digital Plus with Dolby Atmos
    Codec ID                    : A_EAC3
    Duration                    : 2 h 19 min
    Bit rate mode               : Constant
    Bit rate                    : 768 kb/s
    Channel(s)                  : 6 channels
    Channel layout              : L R C LFE Ls Rs
    Sampling rate               : 48.0 kHz
    Frame rate                  : 31.250 FPS (1536 SPF)
    Compression mode            : Lossy
    Stream size                 : 765 MiB (5%)
    Language                    : English
    Service kind                : Complete Main
    Default                     : Yes
    Forced                      : No
    Complexity index            : 16
    Number of dynamic objects   : 15
    Bed channel count           : 1 channel
    Bed channel configuration   : LFE
    
    Text
    ID                          : 3
    Format                      : UTF-8
    Codec ID                    : S_TEXT/UTF8
    Codec ID/Info               : UTF-8 Plain Text
    Duration                    : 2 h 17 min
    Bit rate                    : 47 b/s
    Count of elements           : 1722
    Stream size                 : 48.1 KiB (0%)
    Title                       : Traditional
    Default                     : No
    Forced                      : No
    Download - Mirror 1:
    Download - Mirror 2:
     
  2. Loading...


Share This Page