Google Drive Exit.Plan.2020.1080p.Bluray.X264-EVO

Discussion in 'BDRip | 720p/1080p' started by DDLbase, Jun 8, 2020.

  1. DDLbase

    DDLbase Administrator Staff Member

    [​IMG]

    Rating: 5.3/10 based on 319 user ratings

    Genres: Drama, Mystery

    We follow Max, who in the midst of an existential crisis and looking to solve a cold case checks into the clandestine Hotel Aurora. A unique secretive facility that specializes in elaborate assisted suicide fantasies. His investigation uncovers a disturbing truth that forces Max to question the very nature of life, death and his own perception of reality.

    [​IMG]
    Code:
    General
    Unique ID                   : 182142299976531210873986921903810672425 (0x890754BA376467C1B6E345D2BFF3F729)
    Complete name               : Exit.Plan.2020.1080p.Bluray.X264-EVO.mkv
    Format                      : Matroska
    Format version              : Version 2
    File size                   : 10.3 GiB
    Duration                    : 1 h 29 min
    Overall bit rate            : 16.5 Mb/s
    Encoded date                : UTC 2020-06-08T10:46:18Z
    Writing application         : HandBrake 0.10.5 2016021100
    Writing library             : Lavf55.12.0
    
    Video
    ID                          : 1
    Format                      : AVC
    Format/Info                 : Advanced Video Codec
    Format profile              : [email protected]
    Format settings             : CABAC / 4 Ref Frames
    Format settings, CABAC      : Yes
    Format settings, Reference  : 4 frames
    Codec ID                    : V_MPEG4/ISO/AVC
    Duration                    : 1 h 29 min
    Bit rate                    : 15.7 Mb/s
    Nominal bit rate            : 16.7 Mb/s
    Width                       : 1 920 pixels
    Height                      : 800 pixels
    Display aspect ratio        : 2.40:1
    Frame rate mode             : Constant
    Frame rate                  : 24.000 FPS
    Color space                 : YUV
    Chroma subsampling          : 4:2:0
    Bit depth                   : 8 bits
    Scan type                   : Progressive
    Bits/(Pixel*Frame)          : 0.425
    Stream size                 : 9.80 GiB (95%)
    Writing library             : x264 core 142 r2479 dd79a61
    Encoding settings           : cabac=1 / ref=1 / deblock=1:0:0 / analyse=0x3:0x3 / me=dia / subme=1 / psy=1 / psy_rd=1.00:0.00 / mixed_ref=0 / me_range=16 / chroma_me=1 / trellis=0 / 8x8dct=1 / cqm=0 / deadzone=21,11 / fast_pskip=1 / chroma_qp_offset=0 / threads=12 / lookahead_threads=2 / sliced_threads=0 / nr=0 / decimate=1 / interlaced=0 / bluray_compat=0 / constrained_intra=0 / bframes=3 / b_pyramid=2 / b_adapt=1 / b_bias=0 / direct=1 / weightb=1 / open_gop=0 / weightp=1 / keyint=240 / keyint_min=24 / scenecut=40 / intra_refresh=0 / rc_lookahead=0 / rc=abr / mbtree=0 / bitrate=16694 / ratetol=1.0 / qcomp=0.60 / qpmin=0 / qpmax=69 / qpstep=4 / vbv_maxrate=62500 / vbv_bufsize=78125 / nal_hrd=none / filler=0 / ip_ratio=1.40 / pb_ratio=1.30 / aq=1:1.00
    Default                     : Yes
    Forced                      : No
    Color range                 : Limited
    Color primaries             : BT.709
    Transfer characteristics    : BT.709
    Matrix coefficients         : BT.709
    
    Audio
    ID                          : 2
    Format                      : AC-3
    Format/Info                 : Audio Coding 3
    Commercial name             : Dolby Digital
    Codec ID                    : A_AC3
    Duration                    : 1 h 29 min
    Bit rate mode               : Constant
    Bit rate                    : 448 kb/s
    Channel(s)                  : 6 channels
    Channel layout              : L R C LFE Ls Rs
    Sampling rate               : 48.0 kHz
    Frame rate                  : 31.250 FPS (1536 SPF)
    Compression mode            : Lossy
    Delay relative to video     : -5 ms
    Stream size                 : 287 MiB (3%)
    Title                       : Surround
    Language                    : Danish
    Service kind                : Complete Main
    Default                     : Yes
    Forced                      : No
    
    Menu
    00:00:00.000                : :Chapter 1
    00:20:56.208                : :Chapter 2
    00:38:47.166                : :Chapter 3
    00:54:54.166                : :Chapter 4
    01:13:03.166                : :Chapter 5
    Download:
     
  2. Loading...


Share This Page