Google Drive Exit.Wounds.2001.1080p.BluRay.x264-HD4U

Discussion in 'BDRip | 720p/1080p' started by DDLbase, Jul 31, 2020.

  1. DDLbase

    DDLbase Administrator Staff Member

    [​IMG]

    Rating: 5.6/10 based on 31,551 user ratings

    Genres: Action, Crime, Thriller

    Orin Boyd, a tough cop in an inner-city precinct discovers a web of dirty cops and corruption.

    [​IMG]
    Code:
    General
    Unique ID                   : 242754037221490141996427729973162058157 (0xB6A0BA18C710B22BAAFEF9F1874CA1AD)
    Complete name               : Exit.Wounds.2001.1080p.BluRay.x264-HD4U.mkv
    Format                      : Matroska
    Format version              : Version 4
    File size                   : 7.65 GiB
    Duration                    : 1 h 41 min
    Overall bit rate            : 10.8 Mb/s
    Encoded date                : UTC 2014-04-11 12:04:07
    Writing application         : mkvmerge v6.2.0 ('Promised Land') built on Apr 28 2013 12:22:01
    Writing library             : libebml v1.3.0 + libmatroska v1.4.0
    
    Video
    ID                          : 1
    Format                      : AVC
    Format/Info                 : Advanced Video Codec
    Format profile              : [email protected]
    Format settings             : CABAC / 5 Ref Frames
    Format settings, CABAC      : Yes
    Format settings, Reference  : 5 frames
    Codec ID                    : V_MPEG4/ISO/AVC
    Duration                    : 1 h 41 min
    Bit rate                    : 9 293 kb/s
    Width                       : 1 920 pixels
    Height                      : 800 pixels
    Display aspect ratio        : 2.40:1
    Frame rate mode             : Constant
    Frame rate                  : 23.976 FPS
    Color space                 : YUV
    Chroma subsampling          : 4:2:0
    Bit depth                   : 8 bits
    Scan type                   : Progressive
    Bits/(Pixel*Frame)          : 0.252
    Stream size                 : 6.43 GiB (84%)
    Writing library             : x264 core 140 r2377 1ca7bb9
    Encoding settings           : cabac=1 / ref=5 / deblock=1:0:0 / analyse=0x3:0x133 / me=umh / subme=7 / psy=1 / psy_rd=1.00:0.00 / mixed_ref=1 / me_range=16 / chroma_me=1 / trellis=1 / 8x8dct=1 / cqm=0 / deadzone=21,11 / fast_pskip=0 / chroma_qp_offset=-2 / threads=18 / lookahead_threads=3 / sliced_threads=0 / nr=0 / decimate=1 / interlaced=0 / bluray_compat=0 / constrained_intra=0 / bframes=3 / b_pyramid=2 / b_adapt=1 / b_bias=0 / direct=1 / weightb=1 / open_gop=0 / weightp=2 / keyint=250 / keyint_min=23 / scenecut=40 / intra_refresh=0 / rc_lookahead=40 / rc=2pass / mbtree=1 / bitrate=9293 / ratetol=1.0 / qcomp=0.60 / qpmin=0 / qpmax=69 / qpstep=4 / cplxblur=20.0 / qblur=0.5 / ip_ratio=1.40 / aq=1:1.00
    Language                    : English
    Default                     : Yes
    Forced                      : No
    
    Audio
    ID                          : 2
    Format                      : DTS
    Format/Info                 : Digital Theater Systems
    Codec ID                    : A_DTS
    Duration                    : 1 h 41 min
    Bit rate mode               : Constant
    Bit rate                    : 1 509 kb/s
    Channel(s)                  : 6 channels
    Channel layout              : C L R Ls Rs LFE
    Sampling rate               : 48.0 kHz
    Frame rate                  : 93.750 FPS (512 SPF)
    Bit depth                   : 24 bits
    Compression mode            : Lossy
    Stream size                 : 1.07 GiB (14%)
    Language                    : English
    Default                     : Yes
    Forced                      : No
    
    Menu
    00:00:00.000                : en:00:00:00.000
    00:11:34.485                : en:00:11:34.485
    00:20:06.997                : en:00:20:06.997
    00:31:57.999                : en:00:31:57.999
    00:40:00.231                : en:00:40:00.231
    00:49:25.921                : en:00:49:25.921
    00:59:58.970                : en:00:59:58.970
    01:09:43.513                : en:01:09:43.513
    01:19:41.777                : en:01:19:41.777
    01:31:48.044                : en:01:31:48.044
    01:34:53.104                : en:01:34:53.104
    Download:
     
  2. Loading...


Share This Page