Google Drive Extraction.2.2023.2160p.NF.WEB-DL.DDP5.1.Atmos.DV.HDR.H.265-FLUX

Discussion in 'Web-DL / Webrip | 4K' started by DDLbase, Jun 17, 2023.

  1. DDLbase

    DDLbase Administrator Staff Member

    [​IMG]

    Rating: 7.4/10 based on ‎7,955 user ratings

    Genres: Action, Thriller

    After barely surviving his grievous wounds from his mission in Dhaka, Bangladesh, Tyler Rake is back, and his team is ready to take on their next mission.

    [​IMG]
    Code:
    General
    Unique ID                   : 234307745710696587687563609484280569037 (0xB04607C61B2D0BD16F16D7F614D19CCD)
    Complete name               : Extraction.2.2023.2160p.NF.WEB-DL.DDP5.1.Atmos.DV.HDR.H.265-FLUX.mkv
    Format                      : Matroska
    Format version              : Version 4
    File size                   : 17.1 GiB
    Duration                    : 2 h 3 min
    Overall bit rate            : 19.7 Mb/s
    Writing application         : mkvmerge v74.0.0 ('You Oughta Know') 64-bit
    Writing library             : libebml v1.4.4 + libmatroska v1.7.1
    
    Video
    ID                          : 1
    Format                      : HEVC
    Format/Info                 : High Efficiency Video Coding
    Format profile              : Main 10@L5@Main
    HDR format                  : Dolby Vision, Version 1.0, dvhe.08.06, BL+RPU, HDR10 compatible / SMPTE ST 2086, HDR10 compatible
    Codec ID                    : V_MPEGH/ISO/HEVC
    Duration                    : 2 h 3 min
    Bit rate                    : 19.0 Mb/s
    Width                       : 3 840 pixels
    Height                      : 2 160 pixels
    Display aspect ratio        : 16:9
    Frame rate mode             : Constant
    Frame rate                  : 24.000 FPS
    Color space                 : YUV
    Chroma subsampling          : 4:2:0 (Type 2)
    Bit depth                   : 10 bits
    Bits/(Pixel*Frame)          : 0.095
    Stream size                 : 16.4 GiB (96%)
    Language                    : English
    Default                     : Yes
    Forced                      : No
    Color range                 : Limited
    Color primaries             : BT.2020
    Transfer characteristics    : PQ
    Matrix coefficients         : BT.2020 non-constant
    Mastering display color pri : Display P3
    Mastering display luminance : min: 0.0001 cd/m2, max: 1000 cd/m2
    Maximum Content Light Level : 405 cd/m2
    Maximum Frame-Average Light : 355 cd/m2
    
    Audio
    ID                          : 2
    Format                      : E-AC-3 JOC
    Format/Info                 : Enhanced AC-3 with Joint Object Coding
    Commercial name             : Dolby Digital Plus with Dolby Atmos
    Codec ID                    : A_EAC3
    Duration                    : 2 h 2 min
    Bit rate mode               : Constant
    Bit rate                    : 768 kb/s
    Channel(s)                  : 6 channels
    Channel layout              : L R C LFE Ls Rs
    Sampling rate               : 48.0 kHz
    Frame rate                  : 31.250 FPS (1536 SPF)
    Compression mode            : Lossy
    Stream size                 : 671 MiB (4%)
    Language                    : English
    Service kind                : Complete Main
    Default                     : Yes
    Forced                      : No
    Complexity index            : 16
    Number of dynamic objects   : 15
    Bed channel count           : 1 channel
    Bed channel configuration   : LFE
    
    Text #1
    ID                          : 3
    Format                      : UTF-8
    Codec ID                    : S_TEXT/UTF8
    Codec ID/Info               : UTF-8 Plain Text
    Duration                    : 1 h 41 min
    Bit rate                    : 9 b/s
    Frame rate                  : 0.042 FPS
    Count of elements           : 257
    Stream size                 : 7.10 KiB (0%)
    Title                       : Forced
    Language                    : English
    Default                     : Yes
    Forced                      : Yes
    
    Text #2
    ID                          : 4
    Format                      : UTF-8
    Codec ID                    : S_TEXT/UTF8
    Codec ID/Info               : UTF-8 Plain Text
    Duration                    : 1 h 50 min
    Bit rate                    : 30 b/s
    Frame rate                  : 0.124 FPS
    Count of elements           : 821
    Stream size                 : 25.0 KiB (0%)
    Language                    : English
    Default                     : No
    Forced                      : No
    
    Text #3
    ID                          : 5
    Format                      : UTF-8
    Codec ID                    : S_TEXT/UTF8
    Codec ID/Info               : UTF-8 Plain Text
    Duration                    : 1 h 50 min
    Bit rate                    : 38 b/s
    Frame rate                  : 0.157 FPS
    Count of elements           : 1038
    Stream size                 : 31.0 KiB (0%)
    Title                       : SDH
    Language                    : English
    Default                     : No
    Forced                      : No
    
    Text #4
    ID                          : 6
    Format                      : UTF-8
    Codec ID                    : S_TEXT/UTF8
    Codec ID/Info               : UTF-8 Plain Text
    Duration                    : 2 h 1 min
    Bit rate                    : 45 b/s
    Frame rate                  : 0.114 FPS
    Count of elements           : 829
    Stream size                 : 40.3 KiB (0%)
    Language                    : Arabic
    Default                     : No
    Forced                      : No
    
    Text #5
    ID                          : 7
    Format                      : UTF-8
    Codec ID                    : S_TEXT/UTF8
    Codec ID/Info               : UTF-8 Plain Text
    Duration                    : 2 h 1 min
    Bit rate                    : 25 b/s
    Frame rate                  : 0.113 FPS
    Count of elements           : 821
    Stream size                 : 22.6 KiB (0%)
    Language                    : Catalan
    Default                     : No
    Forced                      : No
    
    Text #6
    ID                          : 8
    Format                      : UTF-8
    Codec ID                    : S_TEXT/UTF8
    Codec ID/Info               : UTF-8 Plain Text
    Duration                    : 2 h 1 min
    Bit rate                    : 25 b/s
    Frame rate                  : 0.114 FPS
    Count of elements           : 834
    Stream size                 : 22.4 KiB (0%)
    Language                    : Czech
    Default                     : No
    Forced                      : No
    
    Text #7
    ID                          : 9
    Format                      : UTF-8
    Codec ID                    : S_TEXT/UTF8
    Codec ID/Info               : UTF-8 Plain Text
    Duration                    : 2 h 1 min
    Bit rate                    : 25 b/s
    Frame rate                  : 0.110 FPS
    Count of elements           : 799
    Stream size                 : 22.5 KiB (0%)
    Language                    : Danish
    Default                     : No
    Forced                      : No
    
    Text #8
    ID                          : 10
    Format                      : UTF-8
    Codec ID                    : S_TEXT/UTF8
    Codec ID/Info               : UTF-8 Plain Text
    Duration                    : 2 h 1 min
    Bit rate                    : 25 b/s
    Frame rate                  : 0.112 FPS
    Count of elements           : 814
    Stream size                 : 22.5 KiB (0%)
    Language                    : German
    Default                     : No
    Forced                      : No
    
    Text #9
    ID                          : 11
    Format                      : UTF-8
    Codec ID                    : S_TEXT/UTF8
    Codec ID/Info               : UTF-8 Plain Text
    Duration                    : 2 h 1 min
    Bit rate                    : 44 b/s
    Frame rate                  : 0.115 FPS
    Count of elements           : 839
    Stream size                 : 39.6 KiB (0%)
    Language                    : Greek
    Default                     : No
    Forced                      : No
    
    Text #10
    ID                          : 12
    Format                      : UTF-8
    Codec ID                    : S_TEXT/UTF8
    Codec ID/Info               : UTF-8 Plain Text
    Duration                    : 2 h 1 min
    Bit rate                    : 26 b/s
    Frame rate                  : 0.114 FPS
    Count of elements           : 831
    Stream size                 : 23.5 KiB (0%)
    Title                       : Latin American
    Language                    : Spanish
    Default                     : No
    Forced                      : No
    
    Text #11
    ID                          : 13
    Format                      : UTF-8
    Codec ID                    : S_TEXT/UTF8
    Codec ID/Info               : UTF-8 Plain Text
    Duration                    : 2 h 1 min
    Bit rate                    : 25 b/s
    Frame rate                  : 0.114 FPS
    Count of elements           : 830
    Stream size                 : 22.9 KiB (0%)
    Language                    : Spanish
    Default                     : No
    Forced                      : No
    
    Text #12
    ID                          : 14
    Format                      : UTF-8
    Codec ID                    : S_TEXT/UTF8
    Codec ID/Info               : UTF-8 Plain Text
    Duration                    : 2 h 1 min
    Bit rate                    : 26 b/s
    Frame rate                  : 0.112 FPS
    Count of elements           : 819
    Stream size                 : 23.2 KiB (0%)
    Language                    : Basque
    Default                     : No
    Forced                      : No
    
    Text #13
    ID                          : 15
    Format                      : UTF-8
    Codec ID                    : S_TEXT/UTF8
    Codec ID/Info               : UTF-8 Plain Text
    Duration                    : 2 h 1 min
    Bit rate                    : 24 b/s
    Frame rate                  : 0.107 FPS
    Count of elements           : 783
    Stream size                 : 21.9 KiB (0%)
    Language                    : Finnish
    Default                     : No
    Forced                      : No
    
    Text #14
    ID                          : 16
    Format                      : UTF-8
    Codec ID                    : S_TEXT/UTF8
    Codec ID/Info               : UTF-8 Plain Text
    Duration                    : 2 h 1 min
    Bit rate                    : 24 b/s
    Frame rate                  : 0.108 FPS
    Count of elements           : 785
    Stream size                 : 21.4 KiB (0%)
    Language                    : fil
    Default                     : No
    Forced                      : No
    
    Text #15
    ID                          : 17
    Format                      : UTF-8
    Codec ID                    : S_TEXT/UTF8
    Codec ID/Info               : UTF-8 Plain Text
    Duration                    : 2 h 1 min
    Bit rate                    : 24 b/s
    Frame rate                  : 0.115 FPS
    Count of elements           : 836
    Stream size                 : 22.2 KiB (0%)
    Language                    : French
    Default                     : No
    Forced                      : No
    
    Text #16
    ID                          : 18
    Format                      : UTF-8
    Codec ID                    : S_TEXT/UTF8
    Codec ID/Info               : UTF-8 Plain Text
    Duration                    : 2 h 1 min
    Bit rate                    : 23 b/s
    Frame rate                  : 0.114 FPS
    Count of elements           : 830
    Stream size                 : 21.1 KiB (0%)
    Language                    : Galician
    Default                     : No
    Forced                      : No
    
    Text #17
    ID                          : 19
    Format                      : UTF-8
    Codec ID                    : S_TEXT/UTF8
    Codec ID/Info               : UTF-8 Plain Text
    Duration                    : 2 h 1 min
    Bit rate                    : 42 b/s
    Frame rate                  : 0.117 FPS
    Count of elements           : 851
    Stream size                 : 38.1 KiB (0%)
    Language                    : Hebrew
    Default                     : No
    Forced                      : No
    
    Text #18
    ID                          : 20
    Format                      : UTF-8
    Codec ID                    : S_TEXT/UTF8
    Codec ID/Info               : UTF-8 Plain Text
    Duration                    : 2 h 1 min
    Bit rate                    : 24 b/s
    Frame rate                  : 0.112 FPS
    Count of elements           : 818
    Stream size                 : 21.8 KiB (0%)
    Language                    : Croatian
    Default                     : No
    Forced                      : No
    
    Text #19
    ID                          : 21
    Format                      : UTF-8
    Codec ID                    : S_TEXT/UTF8
    Codec ID/Info               : UTF-8 Plain Text
    Duration                    : 2 h 1 min
    Bit rate                    : 26 b/s
    Frame rate                  : 0.110 FPS
    Count of elements           : 804
    Stream size                 : 23.5 KiB (0%)
    Language                    : Hungarian
    Default                     : No
    Forced                      : No
    
    Text #20
    ID                          : 22
    Format                      : UTF-8
    Codec ID                    : S_TEXT/UTF8
    Codec ID/Info               : UTF-8 Plain Text
    Duration                    : 2 h 1 min
    Bit rate                    : 23 b/s
    Frame rate                  : 0.114 FPS
    Count of elements           : 828
    Stream size                 : 21.3 KiB (0%)
    Language                    : Indonesian
    Default                     : No
    Forced                      : No
    
    Text #21
    ID                          : 23
    Format                      : UTF-8
    Codec ID                    : S_TEXT/UTF8
    Codec ID/Info               : UTF-8 Plain Text
    Duration                    : 2 h 1 min
    Bit rate                    : 25 b/s
    Frame rate                  : 0.114 FPS
    Count of elements           : 829
    Stream size                 : 22.8 KiB (0%)
    Language                    : Italian
    Default                     : No
    Forced                      : No
    
    Text #22
    ID                          : 24
    Format                      : UTF-8
    Codec ID                    : S_TEXT/UTF8
    Codec ID/Info               : UTF-8 Plain Text
    Duration                    : 2 h 1 min
    Bit rate                    : 21 b/s
    Frame rate                  : 0.107 FPS
    Count of elements           : 778
    Stream size                 : 19.3 KiB (0%)
    Language                    : Japanese
    Default                     : No
    Forced                      : No
    
    Text #23
    ID                          : 25
    Format                      : UTF-8
    Codec ID                    : S_TEXT/UTF8
    Codec ID/Info               : UTF-8 Plain Text
    Duration                    : 2 h 1 min
    Bit rate                    : 29 b/s
    Frame rate                  : 0.117 FPS
    Count of elements           : 851
    Stream size                 : 26.1 KiB (0%)
    Language                    : Korean
    Default                     : No
    Forced                      : No
    
    Text #24
    ID                          : 26
    Format                      : UTF-8
    Codec ID                    : S_TEXT/UTF8
    Codec ID/Info               : UTF-8 Plain Text
    Duration                    : 2 h 1 min
    Bit rate                    : 25 b/s
    Frame rate                  : 0.113 FPS
    Count of elements           : 825
    Stream size                 : 22.9 KiB (0%)
    Language                    : Malay
    Default                     : No
    Forced                      : No
    
    Text #25
    ID                          : 27
    Format                      : UTF-8
    Codec ID                    : S_TEXT/UTF8
    Codec ID/Info               : UTF-8 Plain Text
    Duration                    : 2 h 1 min
    Bit rate                    : 24 b/s
    Frame rate                  : 0.111 FPS
    Count of elements           : 810
    Stream size                 : 21.4 KiB (0%)
    Language                    : Norwegian Bokmal
    Default                     : No
    Forced                      : No
    
    Text #26
    ID                          : 28
    Format                      : UTF-8
    Codec ID                    : S_TEXT/UTF8
    Codec ID/Info               : UTF-8 Plain Text
    Duration                    : 2 h 1 min
    Bit rate                    : 24 b/s
    Frame rate                  : 0.108 FPS
    Count of elements           : 786
    Stream size                 : 22.1 KiB (0%)
    Language                    : Dutch
    Default                     : No
    Forced                      : No
    
    Text #27
    ID                          : 29
    Format                      : UTF-8
    Codec ID                    : S_TEXT/UTF8
    Codec ID/Info               : UTF-8 Plain Text
    Duration                    : 2 h 1 min
    Bit rate                    : 24 b/s
    Frame rate                  : 0.111 FPS
    Count of elements           : 809
    Stream size                 : 21.9 KiB (0%)
    Language                    : Polish
    Default                     : No
    Forced                      : No
    
    Text #28
    ID                          : 30
    Format                      : UTF-8
    Codec ID                    : S_TEXT/UTF8
    Codec ID/Info               : UTF-8 Plain Text
    Duration                    : 2 h 1 min
    Bit rate                    : 25 b/s
    Frame rate                  : 0.115 FPS
    Count of elements           : 837
    Stream size                 : 22.9 KiB (0%)
    Title                       : Brazilian
    Language                    : Portuguese
    Default                     : No
    Forced                      : No
    
    Text #29
    ID                          : 31
    Format                      : UTF-8
    Codec ID                    : S_TEXT/UTF8
    Codec ID/Info               : UTF-8 Plain Text
    Duration                    : 2 h 1 min
    Bit rate                    : 25 b/s
    Frame rate                  : 0.113 FPS
    Count of elements           : 826
    Stream size                 : 22.7 KiB (0%)
    Language                    : Portuguese
    Default                     : No
    Forced                      : No
    
    Text #30
    ID                          : 32
    Format                      : UTF-8
    Codec ID                    : S_TEXT/UTF8
    Codec ID/Info               : UTF-8 Plain Text
    Duration                    : 2 h 1 min
    Bit rate                    : 26 b/s
    Frame rate                  : 0.109 FPS
    Count of elements           : 792
    Stream size                 : 23.2 KiB (0%)
    Language                    : Romanian
    Default                     : No
    Forced                      : No
    
    Text #31
    ID                          : 33
    Format                      : UTF-8
    Codec ID                    : S_TEXT/UTF8
    Codec ID/Info               : UTF-8 Plain Text
    Duration                    : 2 h 1 min
    Bit rate                    : 43 b/s
    Frame rate                  : 0.114 FPS
    Count of elements           : 833
    Stream size                 : 38.5 KiB (0%)
    Language                    : Russian
    Default                     : No
    Forced                      : No
    
    Text #32
    ID                          : 34
    Format                      : UTF-8
    Codec ID                    : S_TEXT/UTF8
    Codec ID/Info               : UTF-8 Plain Text
    Duration                    : 2 h 1 min
    Bit rate                    : 25 b/s
    Frame rate                  : 0.106 FPS
    Count of elements           : 775
    Stream size                 : 23.0 KiB (0%)
    Language                    : Swedish
    Default                     : No
    Forced                      : No
    
    Text #33
    ID                          : 35
    Format                      : UTF-8
    Codec ID                    : S_TEXT/UTF8
    Codec ID/Info               : UTF-8 Plain Text
    Duration                    : 2 h 1 min
    Bit rate                    : 64 b/s
    Frame rate                  : 0.114 FPS
    Count of elements           : 834
    Stream size                 : 57.6 KiB (0%)
    Language                    : Thai
    Default                     : No
    Forced                      : No
    
    Text #34
    ID                          : 36
    Format                      : UTF-8
    Codec ID                    : S_TEXT/UTF8
    Codec ID/Info               : UTF-8 Plain Text
    Duration                    : 2 h 1 min
    Bit rate                    : 27 b/s
    Frame rate                  : 0.104 FPS
    Count of elements           : 760
    Stream size                 : 24.2 KiB (0%)
    Language                    : Turkish
    Default                     : No
    Forced                      : No
    
    Text #35
    ID                          : 37
    Format                      : UTF-8
    Codec ID                    : S_TEXT/UTF8
    Codec ID/Info               : UTF-8 Plain Text
    Duration                    : 2 h 1 min
    Bit rate                    : 43 b/s
    Frame rate                  : 0.113 FPS
    Count of elements           : 825
    Stream size                 : 38.9 KiB (0%)
    Language                    : Ukrainian
    Default                     : No
    Forced                      : No
    
    Text #36
    ID                          : 38
    Format                      : UTF-8
    Codec ID                    : S_TEXT/UTF8
    Codec ID/Info               : UTF-8 Plain Text
    Duration                    : 2 h 1 min
    Bit rate                    : 32 b/s
    Frame rate                  : 0.114 FPS
    Count of elements           : 834
    Stream size                 : 29.3 KiB (0%)
    Language                    : Vietnamese
    Default                     : No
    Forced                      : No
    
    Text #37
    ID                          : 39
    Format                      : UTF-8
    Codec ID                    : S_TEXT/UTF8
    Codec ID/Info               : UTF-8 Plain Text
    Duration                    : 2 h 1 min
    Bit rate                    : 24 b/s
    Frame rate                  : 0.115 FPS
    Count of elements           : 839
    Stream size                 : 21.5 KiB (0%)
    Title                       : Simplified
    Language                    : Chinese
    Default                     : No
    Forced                      : No
    
    Text #38
    ID                          : 40
    Format                      : UTF-8
    Codec ID                    : S_TEXT/UTF8
    Codec ID/Info               : UTF-8 Plain Text
    Duration                    : 2 h 1 min
    Bit rate                    : 22 b/s
    Frame rate                  : 0.116 FPS
    Count of elements           : 845
    Stream size                 : 20.5 KiB (0%)
    Title                       : Traditional
    Language                    : Chinese
    Default                     : No
    Forced                      : No
    
    Menu
    00:00:00.000                : en:Part 01
    01:51:10.450                : en:Credits
    Download - Mirror 1:
    Download - Mirror 2:
    Download - Mirror 3:
     
  2. Loading...


Share This Page