Google Drive Eye.in.the.Sky.2015.1080p.BluRay.x264-DRONES

Discussion in 'BDRip | 720p/1080p' started by DDLbase, Oct 17, 2020.

  1. DDLbase

    DDLbase Administrator Staff Member

    [​IMG]

    Rating: 7.3/10 based on 77,953 user ratings

    Genres: Drama, Thriller, War

    Col. Katherine Powell, a military officer in command of an operation to capture terrorists in Kenya, sees her mission escalate when a girl enters the kill zone triggering an international dispute over the implications of modern warfare.

    [​IMG]
    Code:
    General
    Unique ID                   : 253861700576783207108041723120336570788 (0xBEFBFC2EAFE8D50EB7E01591072509A4)
    Complete name               : Eye.in.the.Sky.2015.1080p.BluRay.x264-DRONES.mkv
    Format                      : Matroska
    Format version              : Version 4
    File size                   : 7.65 GiB
    Duration                    : 1 h 42 min
    Overall bit rate            : 10.7 Mb/s
    Encoded date                : UTC 2016-06-10 16:59:52
    Writing application         : mkvmerge v8.3.0 ('Over the Horizon') 64bit
    Writing library             : libebml v1.3.1 + libmatroska v1.4.2
    
    Video
    ID                          : 1
    Format                      : AVC
    Format/Info                 : Advanced Video Codec
    Format profile              : [email protected]
    Format settings             : CABAC / 5 Ref Frames
    Format settings, CABAC      : Yes
    Format settings, Reference  : 5 frames
    Codec ID                    : V_MPEG4/ISO/AVC
    Duration                    : 1 h 42 min
    Bit rate                    : 9 151 kb/s
    Width                       : 1 920 pixels
    Height                      : 808 pixels
    Display aspect ratio        : 2.40:1
    Frame rate mode             : Constant
    Frame rate                  : 23.976 FPS
    Color space                 : YUV
    Chroma subsampling          : 4:2:0
    Bit depth                   : 8 bits
    Scan type                   : Progressive
    Bits/(Pixel*Frame)          : 0.246
    Stream size                 : 6.56 GiB (86%)
    Writing library             : x264 core 148 r2692 64f4e24
    Encoding settings           : cabac=1 / ref=5 / deblock=1:0:0 / analyse=0x3:0x133 / me=umh / subme=7 / psy=1 / psy_rd=1.00:0.00 / mixed_ref=1 / me_range=16 / chroma_me=1 / trellis=1 / 8x8dct=1 / cqm=0 / deadzone=21,11 / fast_pskip=0 / chroma_qp_offset=-2 / threads=12 / lookahead_threads=2 / sliced_threads=0 / nr=0 / decimate=1 / interlaced=0 / bluray_compat=0 / constrained_intra=0 / bframes=3 / b_pyramid=2 / b_adapt=1 / b_bias=0 / direct=1 / weightb=1 / open_gop=0 / weightp=2 / keyint=250 / keyint_min=23 / scenecut=40 / intra_refresh=0 / rc_lookahead=40 / rc=2pass / mbtree=1 / bitrate=9151 / ratetol=1.0 / qcomp=0.60 / qpmin=0 / qpmax=69 / qpstep=4 / cplxblur=20.0 / qblur=0.5 / ip_ratio=1.40 / aq=1:1.00
    Language                    : English
    Default                     : Yes
    Forced                      : No
    
    Audio
    ID                          : 2
    Format                      : DTS
    Format/Info                 : Digital Theater Systems
    Codec ID                    : A_DTS
    Duration                    : 1 h 42 min
    Bit rate mode               : Constant
    Bit rate                    : 1 509 kb/s
    Channel(s)                  : 6 channels
    Channel layout              : C L R Ls Rs LFE
    Sampling rate               : 48.0 kHz
    Frame rate                  : 93.750 FPS (512 SPF)
    Bit depth                   : 24 bits
    Compression mode            : Lossy
    Stream size                 : 1.08 GiB (14%)
    Language                    : English
    Default                     : Yes
    Forced                      : No
    
    Menu
    00:00:00.000                : en:00:00:00.000
    00:05:23.823                : en:00:05:23.823
    00:10:50.149                : en:00:10:50.149
    00:15:12.787                : en:00:15:12.787
    00:19:07.355                : en:00:19:07.355
    00:25:23.230                : en:00:25:23.230
    00:30:22.320                : en:00:30:22.320
    00:36:55.630                : en:00:36:55.630
    00:41:49.590                : en:00:41:49.590
    00:46:48.556                : en:00:46:48.556
    00:50:25.147                : en:00:50:25.147
    00:55:24.279                : en:00:55:24.279
    00:59:34.905                : en:00:59:34.905
    01:03:25.010                : en:01:03:25.010
    01:10:24.262                : en:01:10:24.262
    01:16:51.148                : en:01:16:51.148
    01:21:32.304                : en:01:21:32.304
    01:26:15.003                : en:01:26:15.003
    01:30:03.398                : en:01:30:03.398
    01:33:42.033                : en:01:33:42.033
    Download - Mirror 1:
    Download - Mirror 2:
     
  2. Loading...


Share This Page