Google Drive Fast.and.Furious.9.The.Fast.Saga.Directors.Cut.2021.1080p.Bluray.Atmos.TrueHD.7.1.x264-EVO

Discussion in 'BDRip | 720p/1080p' started by DDLbase, Sep 3, 2021.

  1. DDLbase

    DDLbase Administrator Staff Member

    [​IMG]

    Rating: 5.2/10 based on 83.295 user ratings

    Genres: Action, Adventure, Crime

    Dom and the crew must take on an international terrorist who turns out to be Dom and Mia's estranged brother.

    [​IMG]
    Code:
    General
    Unique ID                   : 281821984204377203172788031390955413720 (0xD404F099215E6CB5F616397EF2D120D8)
    Complete name               : Fast.and.Furious.9.The.Fast.Saga.Directors.Cut.2021.1080p.Bluray.Atmos.TrueHD.7.1.x264-EVO.mkv
    Format                      : Matroska
    Format version              : Version 4
    File size                   : 18.4 GiB
    Duration                    : 2 h 29 min
    Overall bit rate mode       : Variable
    Overall bit rate            : 17.5 Mb/s
    Movie name                  : EVO
    Encoded date                : UTC 2021-08-30 15:59:22 / UTC 2021-08-30T15:45:01Z
    Writing application         : mkvmerge v49.0.0 ('Sick Of Losing Soulmates') 64-bit
    Writing library             : libebml v1.4.0 + libmatroska v1.6.1 / Lavf55.12.0
    
    Video
    ID                          : 5
    Format                      : AVC
    Format/Info                 : Advanced Video Codec
    Format profile              : [email protected]
    Format settings             : CABAC / 4 Ref Frames
    Format settings, CABAC      : Yes
    Format settings, Reference  : 4 frames
    Codec ID                    : V_MPEG4/ISO/AVC
    Duration                    : 2 h 29 min
    Bit rate                    : 14.0 Mb/s
    Width                       : 1 920 pixels
    Height                      : 804 pixels
    Display aspect ratio        : 2.40:1
    Frame rate mode             : Constant
    Frame rate                  : 23.976 (24000/1001) FPS
    Color space                 : YUV
    Chroma subsampling          : 4:2:0
    Bit depth                   : 8 bits
    Scan type                   : Progressive
    Bits/(Pixel*Frame)          : 0.378
    Stream size                 : 14.3 GiB (78%)
    Writing library             : x264 core 142 r2479 dd79a61
    Encoding settings           : cabac=1 / ref=1 / deblock=1:0:0 / analyse=0x3:0x3 / me=dia / subme=1 / psy=1 / psy_rd=1.00:0.00 / mixed_ref=0 / me_range=16 / chroma_me=1 / trellis=0 / 8x8dct=1 / cqm=0 / deadzone=21,11 / fast_pskip=1 / chroma_qp_offset=0 / threads=24 / lookahead_threads=4 / sliced_threads=0 / nr=0 / decimate=1 / interlaced=0 / bluray_compat=0 / constrained_intra=0 / bframes=3 / b_pyramid=2 / b_adapt=1 / b_bias=0 / direct=1 / weightb=1 / open_gop=0 / weightp=1 / keyint=240 / keyint_min=24 / scenecut=40 / intra_refresh=0 / rc_lookahead=0 / rc=abr / mbtree=0 / bitrate=14000 / ratetol=1.0 / qcomp=0.60 / qpmin=0 / qpmax=69 / qpstep=4 / vbv_maxrate=62500 / vbv_bufsize=78125 / nal_hrd=none / filler=0 / ip_ratio=1.40 / pb_ratio=1.30 / aq=1:1.00
    Default                     : Yes
    Forced                      : No
    Color range                 : Limited
    Color primaries             : BT.709
    Transfer characteristics    : BT.709
    Matrix coefficients         : BT.709
    
    Audio #1
    ID                          : 4
    Format                      : MLP FBA 16-ch
    Format/Info                 : Meridian Lossless Packing FBA with 16-channel presentation
    Commercial name             : Dolby TrueHD with Dolby Atmos
    Codec ID                    : A_TRUEHD
    Duration                    : 2 h 29 min
    Bit rate mode               : Variable
    Bit rate                    : 3 095 kb/s
    Maximum bit rate            : 4 590 kb/s
    Channel(s)                  : 8 channels
    Channel layout              : L R C LFE Ls Rs Lb Rb
    Sampling rate               : 48.0 kHz
    Frame rate                  : 1 200.000 FPS (40 SPF)
    Compression mode            : Lossless
    Delay relative to video     : -83 ms
    Stream size                 : 3.24 GiB (18%)
    Language                    : English
    Default                     : No
    Forced                      : No
    Number of dynamic objects   : 11
    Bed channel count           : 1 channel
    Bed channel configuration   : LFE
    
    Audio #2
    ID                          : 6
    Format                      : AC-3
    Format/Info                 : Audio Coding 3
    Commercial name             : Dolby Digital
    Codec ID                    : A_AC3
    Duration                    : 2 h 29 min
    Bit rate mode               : Constant
    Bit rate                    : 640 kb/s
    Channel(s)                  : 6 channels
    Channel layout              : L R C LFE Ls Rs
    Sampling rate               : 48.0 kHz
    Frame rate                  : 31.250 FPS (1536 SPF)
    Compression mode            : Lossy
    Delay relative to video     : -5 ms
    Stream size                 : 686 MiB (4%)
    Title                       : Surround
    Language                    : English
    Service kind                : Complete Main
    Default                     : Yes
    Forced                      : No
    
    Text #1
    ID                          : 1
    Format                      : PGS
    Muxing mode                 : zlib
    Codec ID                    : S_HDMV/PGS
    Codec ID/Info               : Picture based subtitle format used on BDs/HD-DVDs
    Duration                    : 2 h 23 min
    Bit rate                    : 37.5 kb/s
    Count of elements           : 4081
    Stream size                 : 38.4 MiB (0%)
    Language                    : English
    Default                     : Yes
    Forced                      : No
    
    Text #2
    ID                          : 2
    Format                      : PGS
    Muxing mode                 : zlib
    Codec ID                    : S_HDMV/PGS
    Codec ID/Info               : Picture based subtitle format used on BDs/HD-DVDs
    Duration                    : 2 h 20 min
    Bit rate                    : 66.6 kb/s
    Count of elements           : 4572
    Stream size                 : 67.1 MiB (0%)
    Language                    : English
    Default                     : No
    Forced                      : No
    
    Text #3
    ID                          : 3
    Format                      : PGS
    Muxing mode                 : zlib
    Codec ID                    : S_HDMV/PGS
    Codec ID/Info               : Picture based subtitle format used on BDs/HD-DVDs
    Duration                    : 2 h 20 min
    Bit rate                    : 66.5 kb/s
    Count of elements           : 4567
    Stream size                 : 67.0 MiB (0%)
    Language                    : English
    Default                     : No
    Forced                      : No
    
    Menu
    00:00:00.000                : :Chapter 1
    00:04:47.662                : :Chapter 2
    00:12:28.039                : :Chapter 3
    00:21:53.395                : :Chapter 4
    00:26:43.435                : :Chapter 5
    00:31:43.735                : :Chapter 6
    00:35:36.884                : :Chapter 7
    00:45:33.981                : :Chapter 8
    00:53:43.011                : :Chapter 9
    01:01:12.961                : :Chapter 10
    01:05:24.587                : :Chapter 11
    01:13:55.806                : :Chapter 12
    01:25:26.454                : :Chapter 13
    01:35:28.139                : :Chapter 14
    01:41:34.463                : :Chapter 15
    01:47:08.714                : :Chapter 16
    01:57:42.847                : :Chapter 17
    02:08:02.466                : :Chapter 18
    02:12:25.896                : :Chapter 19
    02:17:21.358                : :Chapter 20
    Download - Mirror 1:
    Download - Mirror 2:
     
  2. Loading...


Share This Page