Google Drive Fast.Five.2011.EXTENDED.2160p.UHD.BluRay.x265-SWTYBLZ

Discussion in 'BDRip | 4K' started by DDLbase, May 27, 2021.

  1. DDLbase

    DDLbase Administrator Staff Member

    [​IMG]

    Rating: 7.3/10 based on 357,919 user ratings

    Genres: Action, Adventure, Thriller

    Dominic Toretto and his crew of street racers plan a massive heist to buy their freedom while in the sights of a powerful Brazilian drug lord and a dangerous federal agent.

    [​IMG]
    Code:
    General
    Unique ID                   : 249297395469579121829623881247914777984 (0xBB8CEE90F330D82706AB199EB770DD80)
    Complete name               : Fast.Five.2011.EXTENDED.2160p.UHD.BluRay.x265-SWTYBLZ.mkv
    Format                      : Matroska
    Format version              : Version 4
    File size                   : 31.4 GiB
    Duration                    : 2 h 11 min
    Overall bit rate mode       : Variable
    Overall bit rate            : 34.1 Mb/s
    Movie name                  : Fast.Five.2011.EXTENDED.2160p.BluRay.x265.10bit.HDR.DTS-X.7.1-SWTYBLZ
    Encoded date                : UTC 2019-06-05 17:37:33
    Writing application         : mkvmerge v34.0.0 ('Sight and Seen') 64-bit
    Writing library             : libebml v1.3.7 + libmatroska v1.5.0
    Cover                       : Yes
    Attachments                 : small_cover_land.jpg / cover.jpg / cover_land.jpg / small_cover.jpg
    
    Video
    ID                          : 1
    Format                      : HEVC
    Format/Info                 : High Efficiency Video Coding
    Format profile              : Main [email protected]@High
    HDR format                  : SMPTE ST 2086, HDR10 compatible
    Codec ID                    : V_MPEGH/ISO/HEVC
    Duration                    : 2 h 11 min
    Bit rate                    : 29.4 Mb/s
    Width                       : 3 840 pixels
    Height                      : 1 634 pixels
    Display aspect ratio        : 2.35:1
    Frame rate mode             : Constant
    Frame rate                  : 23.976 (24000/1001) FPS
    Color space                 : YUV
    Chroma subsampling          : 4:2:0 (Type 2)
    Bit depth                   : 10 bits
    Bits/(Pixel*Frame)          : 0.195
    Stream size                 : 27.0 GiB (86%)
    Title                       : Fast.Five.2011.EXTENDED.2160p.BluRay.x265.10bit.HDR.DTS-X.7.1-SWTYBLZ
    Writing library             : x265 3.0_Au+10-74a8672ea4f7:[Windows][GCC 8.2.1][64 bit] 10bit
    Encoding settings           : cpuid=1111039 / frame-threads=16 / numa-pools=24,24,24,24 / wpp / no-pmode / no-pme / no-psnr / no-ssim / log-level=2 / input-csp=1 / input-res=3840x1634 / interlace=0 / total-frames=0 / level-idc=51 / high-tier=1 / uhd-bd=0 / ref=3 / no-allow-non-conformance / repeat-headers / annexb / aud / hrd / info / hash=0 / no-temporal-layers / no-open-gop / min-keyint=1 / keyint=24 / gop-lookahead=0 / bframes=4 / b-adapt=2 / b-pyramid / bframe-bias=0 / rc-lookahead=25 / lookahead-slices=4 / scenecut=40 / radl=0 / no-splice / no-intra-refresh / ctu=64 / min-cu-size=8 / no-rect / no-amp / max-tu-size=32 / tu-inter-depth=1 / tu-intra-depth=1 / limit-tu=0 / rdoq-level=0 / dynamic-rd=0.00 / no-ssim-rd / signhide / no-tskip / nr-intra=0 / nr-inter=0 / no-constrained-intra / strong-intra-smoothing / max-merge=2 / limit-refs=3 / no-limit-modes / me=1 / subme=2 / merange=57 / temporal-mvp / weightp / no-weightb / no-analyze-src-pics / deblock=0:0 / no-sao / no-sao-non-deblock / rd=3 / no-early-skip / rskip / no-fast-intra / no-tskip-fast / no-cu-lossless / no-b-intra / no-splitrd-skip / rdpenalty=0 / psy-rd=2.00 / psy-rdoq=0.00 / no-rd-refine / no-lossless / cbqpoffs=0 / crqpoffs=0 / rc=crf / crf=16.0 / qcomp=0.60 / qpstep=4 / stats-write=0 / stats-read=0 / vbv-maxrate=160000 / vbv-bufsize=160000 / vbv-init=0.9 / crf-max=0.0 / crf-min=0.0 / ipratio=1.40 / pbratio=1.30 / aq-mode=1 / aq-strength=1.00 / cutree / zone-count=0 / no-strict-cbr / qg-size=32 / no-rc-grain / qpmax=69 / qpmin=0 / no-const-vbv / sar=1 / overscan=0 / videoformat=5 / range=0 / colorprim=9 / transfer=16 / colormatrix=9 / chromaloc=1 / chromaloc-top=2 / chromaloc-bottom=2 / display-window=0 / master-display=G(13250,34500)B(7500,3000)R(34000,16000)WP(15635,16450)L(10000000,50) / max-cll=997,344 / min-luma=0 / max-luma=1023 / log2-max-poc-lsb=8 / vui-timing-info / vui-hrd-info / slices=1 / opt-qp-pps / opt-ref-list-length-pps / no-multi-pass-opt-rps / scenecut-bias=0.05 / no-opt-cu-delta-qp / no-aq-motion / hdr / hdr-opt / no-dhdr10-opt / no-idr-recovery-sei / analysis-reuse-level=5 / scale-factor=0 / refine-intra=0 / refine-inter=0 / refine-mv=0 / refine-ctu-distortion=0 / no-limit-sao / ctu-info=0 / no-lowpass-dct / refine-analysis-type=1526153857 / copy-pic=1 / max-ausize-factor=1.0 / no-dynamic-refine / no-single-sei / no-hevc-aq / no-svt / qp-adaptation-range=1.00
    Default                     : Yes
    Forced                      : No
    Color range                 : Limited
    Color primaries             : BT.2020
    Transfer characteristics    : PQ
    Matrix coefficients         : BT.2020 non-constant
    Mastering display color pri : Display P3
    Mastering display luminance : min: 0.0050 cd/m2, max: 1000 cd/m2
    Maximum Content Light Level : 997 cd/m2
    Maximum Frame-Average Light : 344 cd/m2
    
    Audio #1
    ID                          : 2
    Format                      : DTS XLL X
    Format/Info                 : Digital Theater Systems
    Commercial name             : DTS-HD Master Audio
    Codec ID                    : A_DTS
    Duration                    : 2 h 11 min
    Bit rate mode               : Variable
    Bit rate                    : 4 119 kb/s
    Channel(s)                  : 8 channels
    Channel(s)_Original         : Object Based
    ChannelLayout_Original      : Object Based
    Sampling rate               : 48.0 kHz
    Frame rate                  : 93.750 FPS (512 SPF)
    Bit depth                   : 24 bits
    Stream size                 : 3.79 GiB (12%)
    Title                       : Fast.Five.2011.EXTENDED.2160p.BluRay.x265.10bit.HDR.DTS-X.7.1-SWTYBLZ
    Language                    : English
    Default                     : Yes
    Forced                      : No
    
    Audio #2
    ID                          : 3
    Format                      : AC-3
    Format/Info                 : Audio Coding 3
    Commercial name             : Dolby Digital
    Codec ID                    : A_AC3
    Duration                    : 2 h 11 min
    Bit rate mode               : Constant
    Bit rate                    : 640 kb/s
    Channel(s)                  : 6 channels
    Channel layout              : L R C LFE Ls Rs
    Sampling rate               : 48.0 kHz
    Frame rate                  : 31.250 FPS (1536 SPF)
    Compression mode            : Lossy
    Stream size                 : 602 MiB (2%)
    Title                       : Fast.Five.2011.EXTENDED.2160p.BluRay.x265.10bit.HDR.DTS-X.7.1-SWTYBLZ
    Language                    : English
    Service kind                : Complete Main
    Default                     : No
    Forced                      : No
    
    Text #1
    ID                          : 4
    Format                      : UTF-8
    Codec ID                    : S_TEXT/UTF8
    Codec ID/Info               : UTF-8 Plain Text
    Duration                    : 2 h 4 min
    Bit rate                    : 38 b/s
    Count of elements           : 1147
    Stream size                 : 35.5 KiB (0%)
    Title                       : English-SRT
    Language                    : English
    Default                     : Yes
    Forced                      : No
    
    Text #2
    ID                          : 5
    Format                      : PGS
    Muxing mode                 : zlib
    Codec ID                    : S_HDMV/PGS
    Codec ID/Info               : Picture based subtitle format used on BDs/HD-DVDs
    Duration                    : 2 h 4 min
    Bit rate                    : 27.8 kb/s
    Count of elements           : 2546
    Stream size                 : 24.8 MiB (0%)
    Title                       : English-PGS
    Language                    : English
    Default                     : No
    Forced                      : No
    
    Text #3
    ID                          : 6
    Format                      : PGS
    Muxing mode                 : zlib
    Codec ID                    : S_HDMV/PGS
    Codec ID/Info               : Picture based subtitle format used on BDs/HD-DVDs
    Duration                    : 2 h 5 min
    Bit rate                    : 27.2 kb/s
    Count of elements           : 2536
    Stream size                 : 24.4 MiB (0%)
    Title                       : French-PGS
    Language                    : French
    Default                     : No
    Forced                      : No
    
    Text #4
    ID                          : 7
    Format                      : PGS
    Muxing mode                 : zlib
    Codec ID                    : S_HDMV/PGS
    Codec ID/Info               : Picture based subtitle format used on BDs/HD-DVDs
    Duration                    : 2 h 5 min
    Bit rate                    : 23.3 kb/s
    Count of elements           : 2542
    Stream size                 : 20.9 MiB (0%)
    Title                       : Spanish-PGS
    Language                    : Spanish
    Default                     : No
    Forced                      : No
    
    Menu
    00:00:00.000                : en:Chapter 01
    00:07:45.673                : en:Chapter 02
    00:17:29.423                : en:Chapter 03
    00:23:01.797                : en:Chapter 04
    00:28:21.533                : en:Chapter 05
    00:35:05.144                : en:Chapter 06
    00:40:55.661                : en:Chapter 07
    00:48:51.261                : en:Chapter 08
    00:55:29.993                : en:Chapter 09
    01:04:07.552                : en:Chapter 10
    01:11:41.964                : en:Chapter 11
    01:19:23.467                : en:Chapter 12
    01:23:33.800                : en:Chapter 13
    01:28:56.331                : en:Chapter 14
    01:32:57.154                : en:Chapter 15
    01:40:27.104                : en:Chapter 16
    01:48:14.488                : en:Chapter 17
    01:56:03.915                : en:Chapter 18
    02:00:29.013                : en:Chapter 19
    02:04:38.179                : en:Chapter 20
    Download:
     
  2. Loading...


Share This Page