Google Drive Father.Stu.2022.2160p.WEB-DL.DD5.1.HDR.H.265-EVO

Discussion in 'Web-DL / Webrip | 4K' started by DDLbase, May 31, 2022.

  1. DDLbase

    DDLbase Administrator Staff Member

    [​IMG]

    Rating: 6.7/10 based on 3,638 user ratings

    Genres: Biography, Drama

    Follows the life of Father Stuart Long, a boxer-turned-priest who inspired countless people during his journey from self-destruction to redemption.

    [​IMG]
    Code:
    General
    Unique ID                   : 259946994206497545715381439702034050271 (0xC38FF8528C28F9DD928F896F8EE46CDF)
    Complete name               : Father.Stu.2022.2160p.WEB-DL.DD5.1.HDR.H.265-EVO.mkv
    Format                      : Matroska
    Format version              : Version 4
    File size                   : 13.0 GiB
    Duration                    : 2 h 4 min
    Overall bit rate            : 15.0 Mb/s
    Encoded date                : UTC 2022-05-29 23:02:56
    Writing application         : mkvmerge v65.0.0 ('Too Much') 64-bit
    Writing library             : libebml v1.4.2 + libmatroska v1.6.4
    
    Video
    ID                          : 1
    Format                      : HEVC
    Format/Info                 : High Efficiency Video Coding
    Format profile              : Main [email protected]@High
    HDR format                  : SMPTE ST 2086, HDR10 compatible
    Codec ID                    : V_MPEGH/ISO/HEVC
    Duration                    : 2 h 4 min
    Bit rate                    : 14.6 Mb/s
    Width                       : 3 840 pixels
    Height                      : 1 580 pixels
    Display aspect ratio        : 2.40:1
    Frame rate mode             : Constant
    Frame rate                  : 23.976 FPS
    Color space                 : YUV
    Chroma subsampling          : 4:2:0 (Type 2)
    Bit depth                   : 10 bits
    Bits/(Pixel*Frame)          : 0.100
    Stream size                 : 12.7 GiB (97%)
    Default                     : Yes
    Forced                      : No
    Color range                 : Limited
    Color primaries             : BT.2020
    Transfer characteristics    : PQ
    Matrix coefficients         : BT.2020 non-constant
    Mastering display color pri : BT.2020
    Mastering display luminance : min: 0.0050 cd/m2, max: 1000 cd/m2
    Maximum Content Light Level : 551 cd/m2
    Maximum Frame-Average Light : 363 cd/m2
    
    Audio
    ID                          : 2
    Format                      : AC-3
    Format/Info                 : Audio Coding 3
    Commercial name             : Dolby Digital
    Codec ID                    : A_AC3
    Duration                    : 2 h 4 min
    Bit rate mode               : Constant
    Bit rate                    : 384 kb/s
    Channel(s)                  : 6 channels
    Channel layout              : L R C LFE Ls Rs
    Sampling rate               : 48.0 kHz
    Frame rate                  : 31.250 FPS (1536 SPF)
    Compression mode            : Lossy
    Stream size                 : 342 MiB (3%)
    Language                    : English
    Service kind                : Complete Main
    Default                     : Yes
    Forced                      : No
    Download - Mirror 1:
    Download - Mirror 2:
     
  2. Loading...


Share This Page