Google Drive Ford.v.Ferrari.2019.UHD.BluRay.2160p.TrueHD.Atmos.7.1.HEVC.REMUX-FraMeSToR

Discussion in 'BD REMUX | 4K' started by DDLbase, Apr 12, 2020.

  1. DDLbase

    DDLbase Administrator Staff Member

    [​IMG]

    Genres: Action, Biography, Drama, Sport

    American car designer Carroll Shelby and driver Ken Miles battle corporate interference and the laws of physics to build a revolutionary race car for Ford in order to defeat Ferrari at the 24 Hours of Le Mans in 1966.

    [​IMG][​IMG][​IMG]

    Code:
    General
    Complete name                            : Ford.v.Ferrari.2019.UHD.BluRay.2160p.TrueHD.Atmos.7.1.HEVC.REMUX-FraMeSToR.mkv
    Format                                  : Matroska
    Format version                          : Version 4 / Version 2
    File size                                : 47.3 GiB
    Duration                                : 2 h 32 min
    Overall bit rate mode                    : Variable
    Overall bit rate                        : 44.4 Mb/s
    Movie name                              : Ford v Ferrari 4K
    Encoded date                            : UTC 2020-02-01 00:37:05
    Writing application                      : mkvmerge v43.0.0 ('The Quartermaster') 64-bit
    Writing library                          : libebml v1.3.10 + libmatroska v1.5.2
    
    Video
    ID                                      : 1
    Format                                  : HEVC
    Format/Info                              : High Efficiency Video Coding
    Format profile                          : Main [email protected]@High
    Codec ID                                : V_MPEGH/ISO/HEVC
    Duration                                : 2 h 32 min
    Bit rate                                : 38.9 Mb/s
    Width                                    : 3 840 pixels
    Height                                  : 2 160 pixels
    Display aspect ratio                    : 16:9
    Frame rate mode                          : Constant
    Frame rate                              : 23.976 (24000/1001) FPS
    Color space                              : YUV
    Chroma subsampling                      : 4:2:0 (Type 2)
    Bit depth                                : 10 bits
    Bits/(Pixel*Frame)                      : 0.196
    Stream size                              : 41.5 GiB (88%)
    Writing library                          : ATEME Titan File 3.9.0 (4.9.0.0)       
    Default                                  : Yes
    Forced                                  : No
    Color range                              : Limited
    Color primaries                          : BT.2020
    Transfer characteristics                : PQ
    Matrix coefficients                      : BT.2020 non-constant
    Mastering display color primaries        : Display P3
    Mastering display luminance              : min: 0.0050 cd/m2, max: 1000 cd/m2
    
    Audio #1
    ID                                      : 2
    Format                                  : TrueHD
    Format profile                          : TrueHD+Atmos / TrueHD
    Codec ID                                : A_TRUEHD
    Duration                                : 2 h 32 min
    Bit rate mode                            : Variable
    Bit rate                                : 4 561 kb/s
    Maximum bit rate                        : 9 933 kb/s
    Channel(s)                              : Object Based / 8 channels
    Channel positions                        : Object Based / Front: L C R, Side: L R, Back: L R, LFE
    Sampling rate                            :  / 48.0 kHz
    Frame rate                              : 1 200.000 FPS (40 SPF)
    Compression mode                        : Lossless
    Stream size                              : 4.86 GiB (10%)
    Title                                    : TrueHD Atmos 7.1
    Language                                : English
    Default                                  : Yes
    Forced                                  : No
    
    Audio #2
    ID                                      : 3
    Format                                  : AC-3
    Format/Info                              : Audio Coding 3
    Codec ID                                : A_AC3
    Duration                                : 2 h 32 min
    Bit rate mode                            : Constant
    Bit rate                                : 640 kb/s
    Channel(s)                              : 6 channels
    Channel positions                        : Front: L C R, Side: L R, LFE
    Sampling rate                            : 48.0 kHz
    Frame rate                              : 31.250 FPS (1536 SPF)
    Bit depth                                : 16 bits
    Compression mode                        : Lossy
    Stream size                              : 699 MiB (1%)
    Title                                    : AC3 5.1
    Language                                : English
    Service kind                            : Complete Main
    Default                                  : No
    Forced                                  : No
    
    Text #1
    ID                                      : 4
    Format                                  : PGS
    Codec ID                                : S_HDMV/PGS
    Codec ID/Info                            : Picture based subtitle format used on BDs/HD-DVDs
    Duration                                : 1 h 24 min
    Bit rate                                : 158 b/s
    Count of elements                        : 18
    Stream size                              : 97.7 KiB (0%)
    Title                                    : English (Forced only)
    Language                                : English
    Default                                  : Yes
    Forced                                  : Yes
    
    Text #2
    ID                                      : 5
    Format                                  : PGS
    Codec ID                                : S_HDMV/PGS
    Codec ID/Info                            : Picture based subtitle format used on BDs/HD-DVDs
    Duration                                : 2 h 32 min
    Bit rate                                : 49.8 kb/s
    Count of elements                        : 4996
    Stream size                              : 54.3 MiB (0%)
    Title                                    : English (SDH)
    Language                                : English
    Default                                  : No
    Forced                                  : No
    
    Text #3
    ID                                      : 6
    Format                                  : PGS
    Codec ID                                : S_HDMV/PGS
    Codec ID/Info                            : Picture based subtitle format used on BDs/HD-DVDs
    Duration                                : 2 h 31 min
    Bit rate                                : 20.6 kb/s
    Count of elements                        : 4136
    Stream size                              : 22.4 MiB (0%)
    Title                                    : Chinese (Cantonese)
    Language                                : Chinese
    Default                                  : No
    Forced                                  : No
    
    Text #4
    ID                                      : 7
    Format                                  : PGS
    Codec ID                                : S_HDMV/PGS
    Codec ID/Info                            : Picture based subtitle format used on BDs/HD-DVDs
    Duration                                : 2 h 31 min
    Bit rate                                : 28.3 kb/s
    Count of elements                        : 4158
    Stream size                              : 30.6 MiB (0%)
    Title                                    : Chinese (Mandarin Traditional)
    Language                                : Chinese
    Default                                  : No
    Forced                                  : No
    
    Text #5
    ID                                      : 8
    Format                                  : PGS
    Codec ID                                : S_HDMV/PGS
    Codec ID/Info                            : Picture based subtitle format used on BDs/HD-DVDs
    Duration                                : 2 h 31 min
    Bit rate                                : 34.2 kb/s
    Count of elements                        : 4130
    Stream size                              : 37.0 MiB (0%)
    Title                                    : French
    Language                                : French
    Default                                  : No
    Forced                                  : No
    
    Text #6
    ID                                      : 9
    Format                                  : PGS
    Codec ID                                : S_HDMV/PGS
    Codec ID/Info                            : Picture based subtitle format used on BDs/HD-DVDs
    Duration                                : 2 h 31 min
    Bit rate                                : 22.4 kb/s
    Count of elements                        : 4054
    Stream size                              : 24.2 MiB (0%)
    Title                                    : Japanese
    Language                                : Japanese
    Default                                  : No
    Forced                                  : No
    
    Text #7
    ID                                      : 10
    Format                                  : PGS
    Codec ID                                : S_HDMV/PGS
    Codec ID/Info                            : Picture based subtitle format used on BDs/HD-DVDs
    Duration                                : 2 h 31 min
    Bit rate                                : 26.5 kb/s
    Count of elements                        : 4108
    Stream size                              : 28.8 MiB (0%)
    Title                                    : Korean
    Language                                : Korean
    Default                                  : No
    Forced                                  : No
    
    Text #8
    ID                                      : 11
    Format                                  : PGS
    Codec ID                                : S_HDMV/PGS
    Codec ID/Info                            : Picture based subtitle format used on BDs/HD-DVDs
    Duration                                : 2 h 31 min
    Bit rate                                : 33.2 kb/s
    Count of elements                        : 3910
    Stream size                              : 36.0 MiB (0%)
    Title                                    : Spanish (Latin American)
    Language                                : Spanish
    Default                                  : No
    Forced                                  : No
    
    Menu
    00:00:00.000                            : en:Chapter 01
    00:04:45.285                            : en:Chapter 02
    00:07:32.202                            : en:Chapter 03
    00:10:02.477                            : en:Chapter 04
    00:15:38.980                            : en:Chapter 05
    00:20:14.839                            : en:Chapter 06
    00:21:39.465                            : en:Chapter 07
    00:26:00.559                            : en:Chapter 08
    00:31:57.541                            : en:Chapter 09
    00:34:09.422                            : en:Chapter 10
    00:39:12.934                            : en:Chapter 11
    00:42:06.566                            : en:Chapter 12
    00:45:56.671                            : en:Chapter 13
    00:48:38.332                            : en:Chapter 14
    00:51:21.745                            : en:Chapter 15
    00:55:03.342                            : en:Chapter 16
    00:57:50.467                            : en:Chapter 17
    01:00:26.706                            : en:Chapter 18
    01:06:33.156                            : en:Chapter 19
    01:11:59.482                            : en:Chapter 20
    01:16:13.444                            : en:Chapter 21
    01:19:30.182                            : en:Chapter 22
    01:24:18.428                            : en:Chapter 23
    01:29:24.651                            : en:Chapter 24
    01:33:15.840                            : en:Chapter 25
    01:38:10.968                            : en:Chapter 26
    01:40:57.134                            : en:Chapter 27
    01:43:22.988                            : en:Chapter 28
    01:45:48.884                            : en:Chapter 29
    01:50:38.632                            : en:Chapter 30
    01:53:38.020                            : en:Chapter 31
    01:57:47.269                            : en:Chapter 32
    02:00:16.334                            : en:Chapter 33
    02:05:22.557                            : en:Chapter 34
    02:09:18.042                            : en:Chapter 35
    02:12:01.163                            : en:Chapter 36
    02:15:26.076                            : en:Chapter 37
    02:18:22.794                            : en:Chapter 38
    02:20:46.104                            : en:Chapter 39
    02:26:27.278                            : en:Chapter 40
    Download:
     
  2. Loading...


Share This Page