Google Drive Four.Lions.2010.LIMITED.1080p.BluRay.X264-AMIABLE

Discussion in 'BDRip | 720p/1080p' started by DDLbase, May 18, 2020.

  1. DDLbase

    DDLbase Administrator Staff Member

    [​IMG]

    Rating: 7.3/10 based on 69,445 user ratings

    Genres: Comedy, Crime, Drama

    Four incompetent British terrorists set out to train for and commit an act of terror.

    [​IMG]
    Code:
    General
    Unique ID                   : 178550561728104020471431264116085649151 (0x8653965C0A74436487595D1B81246EFF)
    Complete name               : Four.Lions.2010.LIMITED.1080p.BluRay.X264-AMIABLE.mkv
    Format                      : Matroska
    Format version              : Version 2
    File size                   : 6.56 GiB
    Duration                    : 1 h 37 min
    Overall bit rate            : 9 650 kb/s
    Encoded date                : UTC 2010-08-28 09:40:52
    Writing application         : mkvmerge v3.4.0 ('Rapunzel') built on May 15 2010 09:38:20
    Writing library             : libebml v0.8.0 + libmatroska v0.9.0
    
    Video
    ID                          : 1
    Format                      : AVC
    Format/Info                 : Advanced Video Codec
    Format profile              : [email protected]
    Format settings             : CABAC / 4 Ref Frames
    Format settings, CABAC      : Yes
    Format settings, Reference  : 4 frames
    Codec ID                    : V_MPEG4/ISO/AVC
    Duration                    : 1 h 37 min
    Bit rate                    : 8 144 kb/s
    Width                       : 1 920 pixels
    Height                      : 1 040 pixels
    Display aspect ratio        : 1.85:1
    Frame rate mode             : Constant
    Frame rate                  : 25.000 FPS
    Color space                 : YUV
    Chroma subsampling          : 4:2:0
    Bit depth                   : 8 bits
    Scan type                   : Progressive
    Bits/(Pixel*Frame)          : 0.163
    Stream size                 : 5.40 GiB (82%)
    Writing library             : x264 core 104 r1703 cd21d05
    Encoding settings           : cabac=1 / ref=4 / deblock=1:0:0 / analyse=0x3:0x133 / me=umh / subme=7 / psy=1 / psy_rd=1.00:0.00 / mixed_ref=1 / me_range=16 / chroma_me=1 / trellis=1 / 8x8dct=1 / cqm=0 / deadzone=21,11 / fast_pskip=0 / chroma_qp_offset=-2 / threads=12 / sliced_threads=0 / nr=0 / decimate=1 / interlaced=0 / constrained_intra=0 / bframes=3 / b_pyramid=2 / b_adapt=1 / b_bias=0 / direct=3 / weightb=1 / open_gop=0 / weightp=2 / keyint=250 / keyint_min=25 / scenecut=40 / intra_refresh=0 / rc_lookahead=40 / rc=2pass / mbtree=1 / bitrate=8144 / ratetol=1.0 / qcomp=0.60 / qpmin=10 / qpmax=51 / qpstep=4 / cplxblur=20.0 / qblur=0.5 / ip_ratio=1.40 / aq=1:1.00
    Language                    : English
    Default                     : No
    Forced                      : No
    
    Audio
    ID                          : 2
    Format                      : DTS
    Format/Info                 : Digital Theater Systems
    Codec ID                    : A_DTS
    Duration                    : 1 h 37 min
    Bit rate mode               : Constant
    Bit rate                    : 1 509 kb/s
    Channel(s)                  : 6 channels
    Channel layout              : C L R Ls Rs LFE
    Sampling rate               : 48.0 kHz
    Frame rate                  : 93.750 FPS (512 SPF)
    Bit depth                   : 24 bits
    Compression mode            : Lossy
    Stream size                 : 1.03 GiB (16%)
    Language                    : English
    Default                     : Yes
    Forced                      : No
    
    Text
    ID                          : 3
    Format                      : UTF-8
    Codec ID                    : S_TEXT/UTF8
    Codec ID/Info               : UTF-8 Plain Text
    Language                    : English
    Default                     : No
    Forced                      : No
    
    Menu
    00:00:00.000                : en:00:00:00.000
    00:09:27.360                : en:00:09:27.360
    00:18:47.120                : en:00:18:47.120
    00:29:53.720                : en:00:29:53.720
    00:39:02.720                : en:00:39:02.720
    00:45:39.200                : en:00:45:39.200
    00:55:08.600                : en:00:55:08.600
    01:02:49.800                : en:01:02:49.800
    01:11:16.240                : en:01:11:16.240
    01:19:09.320                : en:01:19:09.320
    01:27:49.920                : en:01:27:49.920
    01:33:09.920                : en:01:33:09.920
    Download:
     
  2. Loading...


Share This Page