Google Drive Foxtrot.2017.1080p.BluRay.x264-HANDJOB

Discussion in 'BDRip | 720p/1080p' started by DDLbase, Feb 18, 2023.

New website version: https://ddlbase.com (final revisions being made) New website version: https://ddlbase.com (final revisions being made)
  1. DDLbase

    DDLbase Administrator Staff Member

    [​IMG]

    Rating: 7.4/10 based on 7,756 user ratings

    Genre: Drama

    A troubled family must face the facts when something goes terribly wrong at their son’s desolate military post.

    [​IMG]
    Code:
    General
    Unique ID                   : 149297112170817168629412408746476418284 (0x705193F0DCFEA0FF5123910D26B1B4EC)
    Complete name               : Foxtrot.2017.1080p.BluRay.x264-HANDJOB.mkv
    Format                      : Matroska
    Format version              : Version 4
    File size                   : 9.49 GiB
    Duration                    : 1 h 52 min
    Overall bit rate            : 12.1 Mb/s
    Movie name                  : Foxtrot [2017] 1080p BluRay - HJ
    Encoded date                : UTC 2019-03-27 04:58:49
    Writing application         : mkvmerge v32.0.0 ('Astral Progressions') 64-bit
    Writing library             : libebml v1.3.7 + libmatroska v1.5.0
    
    Video
    ID                          : 1
    Format                      : AVC
    Format/Info                 : Advanced Video Codec
    Format profile              : [email protected]
    Format settings             : CABAC / 5 Ref Frames
    Format settings, CABAC      : Yes
    Format settings, Reference  : 5 frames
    Codec ID                    : V_MPEG4/ISO/AVC
    Duration                    : 1 h 52 min
    Bit rate                    : 11.4 Mb/s
    Width                       : 1 920 pixels
    Height                      : 804 pixels
    Display aspect ratio        : 2.40:1
    Frame rate mode             : Constant
    Frame rate                  : 24.000 FPS
    Color space                 : YUV
    Chroma subsampling          : 4:2:0
    Bit depth                   : 8 bits
    Scan type                   : Progressive
    Bits/(Pixel*Frame)          : 0.308
    Stream size                 : 8.98 GiB (95%)
    Writing library             : x264 core 157 r2935 545de2f
    Encoding settings           : cabac=1 / ref=5 / deblock=1:-3:-3 / analyse=0x3:0x133 / me=umh / subme=10 / psy=1 / psy_rd=1.00:0.00 / mixed_ref=1 / me_range=32 / chroma_me=1 / trellis=2 / 8x8dct=1 / cqm=0 / deadzone=21,11 / fast_pskip=0 / chroma_qp_offset=-2 / threads=24 / lookahead_threads=6 / sliced_threads=0 / nr=0 / decimate=0 / interlaced=0 / bluray_compat=0 / constrained_intra=0 / bframes=16 / b_pyramid=2 / b_adapt=2 / b_bias=0 / direct=3 / weightb=1 / open_gop=0 / weightp=2 / keyint=240 / keyint_min=24 / scenecut=40 / intra_refresh=0 / rc_lookahead=60 / rc=crf / mbtree=0 / crf=16.8 / qcomp=0.60 / qpmin=0 / qpmax=69 / qpstep=4 / vbv_maxrate=62500 / vbv_bufsize=78125 / crf_max=0.0 / nal_hrd=none / filler=0 / ip_ratio=1.40 / pb_ratio=1.30 / aq=2:1.00
    Default                     : Yes
    Forced                      : No
    Color range                 : Limited
    Color primaries             : BT.709
    Transfer characteristics    : BT.709
    Matrix coefficients         : BT.709
    
    Audio
    ID                          : 2
    Format                      : AC-3
    Format/Info                 : Audio Coding 3
    Commercial name             : Dolby Digital
    Codec ID                    : A_AC3
    Duration                    : 1 h 52 min
    Bit rate mode               : Constant
    Bit rate                    : 640 kb/s
    Channel(s)                  : 6 channels
    Channel layout              : L R C LFE Ls Rs
    Sampling rate               : 48.0 kHz
    Frame rate                  : 31.250 FPS (1536 SPF)
    Compression mode            : Lossy
    Stream size                 : 515 MiB (5%)
    Language                    : Hebrew
    Service kind                : Complete Main
    Default                     : Yes
    Forced                      : No
    
    Text #1
    ID                          : 3
    Format                      : UTF-8
    Codec ID                    : S_TEXT/UTF8
    Codec ID/Info               : UTF-8 Plain Text
    Duration                    : 1 h 50 min
    Bit rate                    : 25 b/s
    Frame rate                  : 0.097 FPS
    Count of elements           : 641
    Stream size                 : 20.5 KiB (0%)
    Language                    : English
    Default                     : Yes
    Forced                      : No
    
    Text #2
    ID                          : 4
    Format                      : UTF-8
    Codec ID                    : S_TEXT/UTF8
    Codec ID/Info               : UTF-8 Plain Text
    Duration                    : 1 h 50 min
    Bit rate                    : 28 b/s
    Frame rate                  : 0.097 FPS
    Count of elements           : 641
    Stream size                 : 23.3 KiB (0%)
    Language                    : French
    Default                     : No
    Forced                      : No
    
    Menu
    00:00:00.000                : :Chapter 1
    00:12:42.125                : :Chapter 2
    00:25:17.375                : :Chapter 3
    00:36:40.375                : :Chapter 4
    00:48:47.500                : :Chapter 5
    01:00:56.542                : :Chapter 6
    01:13:40.625                : :Chapter 7
    01:24:03.750                : :Chapter 8
    01:44:19.167                : :Chapter 9
    Download - Mirror 1:
    Download - Mirror 2:
     
  2. Loading...


Share This Page