Google Drive Ghostbusters.Afterlife.2021.2160p.WEB-DL.DDP5.1.Atmos.HDR.HEVC-EVO

Discussion in 'Web-DL / Webrip | 4K' started by DDLbase, Jan 6, 2022.

  1. DDLbase

    DDLbase Administrator Staff Member

    [​IMG]

    Rating: 7.5/10 based on 57.176 user ratings

    Genres: Adventure, Comedy, Fantasy

    When a single mom and her two kids arrive in a small town, they begin to discover their connection to the original Ghostbusters and the secret legacy their grandfather left behind.

    [​IMG]
    Code:
    General
    Unique ID                   : 74597718039416448732263741618601169118 (0x381EFF7614768A6E26AC9EF1832590DE)
    Complete name               : Ghostbusters.Afterlife.2021.2160p.WEB-DL.DDP5.1.Atmos.HDR.HEVC-EVO.mkv
    Format                      : Matroska
    Format version              : Version 4
    File size                   : 13.1 GiB
    Duration                    : 2 h 3 min
    Overall bit rate            : 15.1 Mb/s
    Encoded date                : UTC 2022-01-04 05:02:29
    Writing application         : mkvmerge v45.0.0 ('Heaven in Pennies') 64-bit
    Writing library             : libebml v1.3.10 + libmatroska v1.5.2
    
    Video
    ID                          : 1
    Format                      : HEVC
    Format/Info                 : High Efficiency Video Coding
    Format profile              : Main [email protected]@High
    HDR format                  : SMPTE ST 2086, HDR10 compatible
    Codec ID                    : V_MPEGH/ISO/HEVC
    Duration                    : 2 h 3 min
    Bit rate                    : 14.3 Mb/s
    Width                       : 3 840 pixels
    Height                      : 1 592 pixels
    Display aspect ratio        : 2.40:1
    Frame rate mode             : Constant
    Frame rate                  : 23.976 (24000/1001) FPS
    Color space                 : YUV
    Chroma subsampling          : 4:2:0 (Type 2)
    Bit depth                   : 10 bits
    Bits/(Pixel*Frame)          : 0.098
    Stream size                 : 12.4 GiB (95%)
    Default                     : Yes
    Forced                      : No
    Color range                 : Limited
    Color primaries             : BT.2020
    Transfer characteristics    : PQ
    Matrix coefficients         : BT.2020 non-constant
    Mastering display color pri : BT.2020
    Mastering display luminance : min: 0.0050 cd/m2, max: 1000 cd/m2
    Maximum Content Light Level : 891 cd/m2
    Maximum Frame-Average Light : 390 cd/m2
    
    Audio
    ID                          : 2
    Format                      : E-AC-3 JOC
    Format/Info                 : Enhanced AC-3 with Joint Object Coding
    Commercial name             : Dolby Digital Plus with Dolby Atmos
    Codec ID                    : A_EAC3
    Duration                    : 2 h 3 min
    Bit rate mode               : Constant
    Bit rate                    : 768 kb/s
    Channel(s)                  : 6 channels
    Channel layout              : L R C LFE Ls Rs
    Sampling rate               : 48.0 kHz
    Frame rate                  : 31.250 FPS (1536 SPF)
    Compression mode            : Lossy
    Stream size                 : 681 MiB (5%)
    Title                       : English
    Language                    : English
    Service kind                : Complete Main
    Default                     : No
    Forced                      : No
    Complexity index            : 16
    Number of dynamic objects   : 15
    Bed channel count           : 1 channel
    Bed channel configuration   : LFE
    Download - Mirror 1:
    Download - Mirror 2:
     
  2. Loading...

    Similar Threads - Ghostbusters Afterlife 2021
    1. DDLbase
      Replies:
      0
      Views:
      1,785

Share This Page