Google Drive Girl.Interrupted.1999.1080p.BluRay.DD5.1.x264-NTb

Discussion in 'BDRip | 720p/1080p' started by DDLbase, Apr 4, 2021.

  1. DDLbase

    DDLbase Administrator Staff Member

    [​IMG]

    Rating: 7.3/10 based on 166,177 user ratings

    Genres: Biography, Drama

    Based on writer Susanna Kaysen’s account of her 18-month stay at a mental hospital in the late 1960s.

    [​IMG]
    Code:
    General
    Unique ID                   : 267342316827211903314660339204406297478 (0xC92041E0E62EBD84C5B36B21BFEEC386)
    Complete name               : Girl.Interrupted.1999.1080p.BluRay.DD5.1.x264-NTb.mkv
    Format                      : Matroska
    Format version              : Version 4
    File size                   : 15.0 GiB
    Duration                    : 2 h 7 min
    Overall bit rate            : 16.8 Mb/s
    Movie name                  : Girl, Interrupted
    Encoded date                : UTC 2021-04-03 19:56:42
    Writing application         : mkvmerge v55.0.0 ('Waiting For Space') 64-bit
    Writing library             : libebml v1.4.2 + libmatroska v1.6.4
    
    Video
    ID                          : 1
    Format                      : AVC
    Format/Info                 : Advanced Video Codec
    Format profile              : [email protected]
    Format settings             : CABAC / 4 Ref Frames
    Format settings, CABAC      : Yes
    Format settings, Reference  : 4 frames
    Codec ID                    : V_MPEG4/ISO/AVC
    Duration                    : 2 h 7 min
    Bit rate                    : 15.5 Mb/s
    Width                       : 1 920 pixels
    Height                      : 1 038 pixels
    Display aspect ratio        : 1.85:1
    Frame rate mode             : Constant
    Frame rate                  : 23.976 (24000/1001) FPS
    Color space                 : YUV
    Chroma subsampling          : 4:2:0
    Bit depth                   : 8 bits
    Scan type                   : Progressive
    Bits/(Pixel*Frame)          : 0.325
    Stream size                 : 13.8 GiB (93%)
    Writing library             : x264 core 161 r3027+53 2464769 t_mod_New [(8 & 10)[email protected] X86_64]
    Encoding settings           : cabac=1 / ref=4 / deblock=1:-3:-3 / analyse=0x3:0x133 / me=umh / subme=10 / psy=1 / fade_compensate=0.00 / psy_rd=1.05:0.00 / mixed_ref=1 / me_range=24 / chroma_me=1 / trellis=2 / 8x8dct=1 / cqm=0 / deadzone=21,11 / fast_pskip=0 / chroma_qp_offset=-2 / threads=24 / lookahead_threads=4 / sliced_threads=0 / nr=0 / decimate=0 / interlaced=0 / bluray_compat=0 / constrained_intra=0 / fgo=0 / bframes=8 / b_pyramid=2 / b_adapt=2 / b_bias=0 / direct=3 / weightb=1 / open_gop=0 / weightp=2 / keyint=250 / keyint_min=23 / scenecut=40 / intra_refresh=0 / rc_lookahead=60 / rc=crf / mbtree=0 / crf=19.5000 / qcomp=0.60 / qpmin=0:0:0 / qpmax=69:69:69 / qpstep=4 / vbv_maxrate=62500 / vbv_bufsize=78125 / crf_max=0.0 / nal_hrd=none / filler=0 / ip_ratio=1.30 / pb_ratio=1.20 / aq=3:0.75 / aq-sensitivity=10.00 / aq-factor=1.00:1.00:1.00 / aq2=0 / aq3=0
    Language                    : English
    Default                     : Yes
    Forced                      : No
    Color range                 : Limited
    Matrix coefficients         : BT.709
    
    Audio #1
    ID                          : 2
    Format                      : AC-3
    Format/Info                 : Audio Coding 3
    Commercial name             : Dolby Digital
    Codec ID                    : A_AC3
    Duration                    : 2 h 7 min
    Bit rate mode               : Constant
    Bit rate                    : 640 kb/s
    Channel(s)                  : 6 channels
    Channel layout              : L R C LFE Ls Rs
    Sampling rate               : 48.0 kHz
    Frame rate                  : 31.250 FPS (1536 SPF)
    Compression mode            : Lossy
    Stream size                 : 583 MiB (4%)
    Language                    : English
    Service kind                : Complete Main
    Default                     : Yes
    Forced                      : No
    
    Audio #2
    ID                          : 3
    ID in the original source m : 4355 (0x1103)
    Format                      : AC-3
    Format/Info                 : Audio Coding 3
    Commercial name             : Dolby Digital
    Codec ID                    : A_AC3
    Duration                    : 2 h 7 min
    Bit rate mode               : Constant
    Bit rate                    : 192 kb/s
    Channel(s)                  : 2 channels
    Channel layout              : L R
    Sampling rate               : 48.0 kHz
    Frame rate                  : 31.250 FPS (1536 SPF)
    Compression mode            : Lossy
    Stream size                 : 175 MiB (1%)
    Title                       : Audio commentary by Director James Mangold.
    Language                    : English
    Service kind                : Complete Main
    Default                     : No
    Forced                      : No
    Original source medium      : Blu-ray
    
    Audio #3
    ID                          : 4
    ID in the original source m : 189 (0xBD)131 (0x83)
    Format                      : AC-3
    Format/Info                 : Audio Coding 3
    Commercial name             : Dolby Digital
    Codec ID                    : A_AC3
    Duration                    : 2 h 7 min
    Bit rate mode               : Constant
    Bit rate                    : 384 kb/s
    Channel(s)                  : 6 channels
    Channel layout              : L R C LFE Ls Rs
    Sampling rate               : 48.0 kHz
    Frame rate                  : 31.250 FPS (1536 SPF)
    Compression mode            : Lossy
    Stream size                 : 350 MiB (2%)
    Title                       : Isolated Score Track.
    Language                    : English
    Service kind                : Complete Main
    Default                     : No
    Forced                      : No
    Original source medium      : DVD-Video
    
    Text #1
    ID                          : 5
    ID in the original source m : 4608 (0x1200)
    Format                      : PGS
    Muxing mode                 : zlib
    Codec ID                    : S_HDMV/PGS
    Codec ID/Info               : Picture based subtitle format used on BDs/HD-DVDs
    Duration                    : 2 h 5 min
    Bit rate                    : 30.8 kb/s
    Count of elements           : 3604
    Stream size                 : 27.6 MiB (0%)
    Title                       : Image
    Language                    : English
    Default                     : No
    Forced                      : No
    Original source medium      : Blu-ray
    
    Text #2
    ID                          : 6
    ID in the original source m : 4609 (0x1201)
    Format                      : PGS
    Muxing mode                 : zlib
    Codec ID                    : S_HDMV/PGS
    Codec ID/Info               : Picture based subtitle format used on BDs/HD-DVDs
    Duration                    : 2 h 5 min
    Bit rate                    : 23.0 kb/s
    Count of elements           : 2662
    Stream size                 : 20.6 MiB (0%)
    Title                       : Image
    Language                    : French
    Default                     : No
    Forced                      : No
    Original source medium      : Blu-ray
    
    Text #3
    ID                          : 7
    ID in the original source m : 4610 (0x1202)
    Format                      : PGS
    Muxing mode                 : zlib
    Codec ID                    : S_HDMV/PGS
    Codec ID/Info               : Picture based subtitle format used on BDs/HD-DVDs
    Duration                    : 2 h 3 min
    Bit rate                    : 25.1 kb/s
    Count of elements           : 3030
    Stream size                 : 22.1 MiB (0%)
    Title                       : Image
    Language                    : Spanish
    Default                     : No
    Forced                      : No
    Original source medium      : Blu-ray
    
    Text #4
    ID                          : 8
    Format                      : UTF-8
    Codec ID                    : S_TEXT/UTF8
    Codec ID/Info               : UTF-8 Plain Text
    Duration                    : 2 h 5 min
    Bit rate                    : 47 b/s
    Count of elements           : 1339
    Stream size                 : 43.9 KiB (0%)
    Title                       : Text
    Language                    : English
    Default                     : No
    Forced                      : No
    
    Text #5
    ID                          : 9
    Format                      : UTF-8
    Codec ID                    : S_TEXT/UTF8
    Codec ID/Info               : UTF-8 Plain Text
    Duration                    : 2 h 5 min
    Bit rate                    : 39 b/s
    Count of elements           : 959
    Stream size                 : 36.7 KiB (0%)
    Title                       : Text
    Language                    : Dutch
    Default                     : No
    Forced                      : No
    
    Text #6
    ID                          : 10
    Format                      : UTF-8
    Codec ID                    : S_TEXT/UTF8
    Codec ID/Info               : UTF-8 Plain Text
    Duration                    : 2 h 5 min
    Bit rate                    : 41 b/s
    Count of elements           : 1348
    Stream size                 : 37.9 KiB (0%)
    Title                       : Text
    Language                    : Turkish
    Default                     : No
    Forced                      : No
    
    Text #7
    ID                          : 11
    Format                      : UTF-8
    Codec ID                    : S_TEXT/UTF8
    Codec ID/Info               : UTF-8 Plain Text
    Duration                    : 2 h 6 min
    Bit rate                    : 38 b/s
    Count of elements           : 903
    Stream size                 : 35.4 KiB (0%)
    Title                       : Text
    Language                    : Swedish
    Default                     : No
    Forced                      : No
    
    Text #8
    ID                          : 12
    Format                      : UTF-8
    Codec ID                    : S_TEXT/UTF8
    Codec ID/Info               : UTF-8 Plain Text
    Duration                    : 2 h 5 min
    Bit rate                    : 41 b/s
    Count of elements           : 1348
    Stream size                 : 38.1 KiB (0%)
    Title                       : Text
    Language                    : Polish
    Default                     : No
    Forced                      : No
    
    Text #9
    ID                          : 13
    Format                      : UTF-8
    Codec ID                    : S_TEXT/UTF8
    Codec ID/Info               : UTF-8 Plain Text
    Duration                    : 2 h 6 min
    Bit rate                    : 37 b/s
    Count of elements           : 900
    Stream size                 : 34.8 KiB (0%)
    Title                       : Text
    Language                    : Norwegian
    Default                     : No
    Forced                      : No
    
    Text #10
    ID                          : 14
    Format                      : UTF-8
    Codec ID                    : S_TEXT/UTF8
    Codec ID/Info               : UTF-8 Plain Text
    Duration                    : 2 h 6 min
    Bit rate                    : 49 b/s
    Count of elements           : 1350
    Stream size                 : 46.1 KiB (0%)
    Title                       : Text
    Language                    : Icelandic
    Default                     : No
    Forced                      : No
    
    Text #11
    ID                          : 15
    Format                      : UTF-8
    Codec ID                    : S_TEXT/UTF8
    Codec ID/Info               : UTF-8 Plain Text
    Duration                    : 2 h 6 min
    Bit rate                    : 40 b/s
    Count of elements           : 1350
    Stream size                 : 37.3 KiB (0%)
    Title                       : Text
    Language                    : Hungarian
    Default                     : No
    Forced                      : No
    
    Text #12
    ID                          : 16
    Format                      : UTF-8
    Codec ID                    : S_TEXT/UTF8
    Codec ID/Info               : UTF-8 Plain Text
    Duration                    : 2 h 7 min
    Bit rate                    : 40 b/s
    Count of elements           : 901
    Stream size                 : 38.0 KiB (0%)
    Title                       : Text
    Language                    : Finnish
    Default                     : No
    Forced                      : No
    
    Text #13
    ID                          : 17
    Format                      : UTF-8
    Codec ID                    : S_TEXT/UTF8
    Codec ID/Info               : UTF-8 Plain Text
    Duration                    : 2 h 6 min
    Bit rate                    : 44 b/s
    Count of elements           : 1350
    Stream size                 : 41.6 KiB (0%)
    Title                       : Text
    Language                    : Czech
    Default                     : No
    Forced                      : No
    
    Text #14
    ID                          : 18
    Format                      : UTF-8
    Codec ID                    : S_TEXT/UTF8
    Codec ID/Info               : UTF-8 Plain Text
    Duration                    : 2 h 5 min
    Bit rate                    : 39 b/s
    Count of elements           : 899
    Stream size                 : 36.8 KiB (0%)
    Title                       : Text
    Language                    : Croatian
    Default                     : No
    Forced                      : No
    
    Text #15
    ID                          : 19
    Format                      : UTF-8
    Codec ID                    : S_TEXT/UTF8
    Codec ID/Info               : UTF-8 Plain Text
    Duration                    : 2 h 1 min
    Bit rate                    : 57 b/s
    Count of elements           : 1493
    Stream size                 : 51.2 KiB (0%)
    Language                    : Vietnamese
    Default                     : No
    Forced                      : No
    
    Menu
    00:00:00.000                : en:1. Start
    00:02:17.011                : en:2. Aspirin Cocktail
    00:05:48.473                : en:3. "You Need a Rest."
    00:13:15.002                : en:4. South Bell
    00:15:38.228                : en:5. Georgina
    00:26:05.522                : en:6. Demise Fantasies
    00:28:08.561                : en:7. Fuzzy-Legged Women
    00:29:38.318                : en:8. A Charming Sociopath
    00:32:02.545                : en:9. Dr. Potts
    00:36:01.993                : en:10. Daisy
    00:41:11.260                : en:11. Borderline Buisiness
    00:45:05.119                : en:12. "The Right Time"
    00:48:08.844                : en:13. Dr. Wick's Office
    00:51:44.684                : en:14. Ice Cream Outing
    00:56:57.705                : en:15. "How to Fight Lonliness"
    01:01:17.674                : en:16. Going to Canada
    01:07:28.461                : en:17. "Downtown"
    01:10:28.807                : en:18. Dr. Wick
    01:16:59.489                : en:19. Facist Torture Chamber
    01:19:14.124                : en:20. Going to Florida
    01:22:53.218                : en:21. Crashing at Daisy's
    01:30:49.026                : en:22. "The End of the World"
    01:37:13.244                : en:23. Empathy
    01:42:05.994                : en:24. In Control
    01:43:38.086                : en:25. Lisa's Return
    01:49:06.289                : en:26. Playing the Villain
    01:57:56.277                : en:27. "I'm Not Really Dead"
    01:59:19.610                : en:28. Goodbyes
    02:03:00.498                : en:29. End Credits
    Download - Mirror 1:
    Download - Mirror 2:
     
  2. Loading...


Share This Page