Google Drive Gladiator.1992.1080p.BluRay.x264.DTS-HANDJOB

Discussion in 'BDRip | 720p/1080p' started by DDLbase, Apr 27, 2021.

  1. DDLbase

    DDLbase Administrator Staff Member

    [​IMG]

    Rating: 6.5/10 based on 8,086 user ratings

    Genres: Action, Drama, Sport

    Tommy Riley has moved with his dad to Chicago from a ‘nice place’. He keeps to himself, goes to school. However, after a street fight he is noticed and quickly falls into the world of illegal underground boxing – where punches can kill.

    [​IMG]
    Code:
    General
    Unique ID                   : 210813532838892473933852275673714264399 (0x9E9935A591EEE452C79AAB9A7F86094F)
    Complete name               : Gladiator.1992.1080p.BluRay.x264.DTS-HANDJOB.mkv
    Format                      : Matroska
    Format version              : Version 4
    File size                   : 8.92 GiB
    Duration                    : 1 h 41 min
    Overall bit rate            : 12.5 Mb/s
    Movie name                  : Gladiator [1992] 1080p BluRay - HJ
    Encoded date                : UTC 2020-09-22 08:43:32
    Writing application         : mkvmerge v49.0.0 ('Sick Of Losing Soulmates') 64-bit
    Writing library             : libebml v1.4.0 + libmatroska v1.6.1
    Cover                       : Yes
    Attachments                 : small_cover.jpg / small_cover_land.jpg / cover.jpg / cover_land.jpg
    
    Video
    ID                          : 1
    Format                      : AVC
    Format/Info                 : Advanced Video Codec
    Format profile              : [email protected]
    Format settings             : CABAC / 4 Ref Frames
    Format settings, CABAC      : Yes
    Format settings, Reference  : 4 frames
    Codec ID                    : V_MPEG4/ISO/AVC
    Duration                    : 1 h 41 min
    Bit rate                    : 11.8 Mb/s
    Width                       : 1 920 pixels
    Height                      : 1 080 pixels
    Display aspect ratio        : 16:9
    Frame rate mode             : Constant
    Frame rate                  : 24.000 FPS
    Color space                 : YUV
    Chroma subsampling          : 4:2:0
    Bit depth                   : 8 bits
    Scan type                   : Progressive
    Bits/(Pixel*Frame)          : 0.236
    Stream size                 : 8.37 GiB (94%)
    Writing library             : x264 core 157 r2935 545de2f
    Encoding settings           : cabac=1 / ref=4 / deblock=1:-3:-3 / analyse=0x3:0x133 / me=umh / subme=10 / psy=1 / psy_rd=1.00:0.00 / mixed_ref=1 / me_range=32 / chroma_me=1 / trellis=2 / 8x8dct=1 / cqm=0 / deadzone=21,11 / fast_pskip=0 / chroma_qp_offset=-2 / threads=34 / lookahead_threads=8 / sliced_threads=0 / nr=0 / decimate=0 / interlaced=0 / bluray_compat=0 / constrained_intra=0 / bframes=16 / b_pyramid=2 / b_adapt=2 / b_bias=0 / direct=3 / weightb=1 / open_gop=0 / weightp=2 / keyint=240 / keyint_min=24 / scenecut=40 / intra_refresh=0 / rc_lookahead=60 / rc=crf / mbtree=0 / crf=20.0 / qcomp=0.60 / qpmin=0 / qpmax=69 / qpstep=4 / vbv_maxrate=62500 / vbv_bufsize=78125 / crf_max=0.0 / nal_hrd=none / filler=0 / ip_ratio=1.40 / pb_ratio=1.30 / aq=2:1.00
    Language                    : English
    Default                     : Yes
    Forced                      : No
    Color range                 : Limited
    Color primaries             : BT.709
    Transfer characteristics    : BT.709
    Matrix coefficients         : BT.709
    
    Audio
    ID                          : 2
    Format                      : DTS
    Format/Info                 : Digital Theater Systems
    Codec ID                    : A_DTS
    Duration                    : 1 h 41 min
    Bit rate mode               : Constant
    Bit rate                    : 768 kb/s
    Channel(s)                  : 6 channels
    Channel layout              : C L R Ls Rs LFE
    Sampling rate               : 48.0 kHz
    Frame rate                  : 93.750 FPS (512 SPF)
    Bit depth                   : 16 bits
    Compression mode            : Lossy
    Stream size                 : 559 MiB (6%)
    Language                    : English
    Default                     : Yes
    Forced                      : No
    
    Text #1
    ID                          : 3
    Format                      : UTF-8
    Codec ID                    : S_TEXT/UTF8
    Codec ID/Info               : UTF-8 Plain Text
    Duration                    : 1 h 34 min
    Bit rate                    : 44 b/s
    Count of elements           : 1114
    Stream size                 : 30.9 KiB (0%)
    Language                    : English
    Default                     : No
    Forced                      : No
    
    Text #2
    ID                          : 4
    Format                      : PGS
    Muxing mode                 : zlib
    Codec ID                    : S_HDMV/PGS
    Codec ID/Info               : Picture based subtitle format used on BDs/HD-DVDs
    Duration                    : 1 h 34 min
    Bit rate                    : 25.6 kb/s
    Count of elements           : 2292
    Stream size                 : 17.3 MiB (0%)
    Language                    : German
    Default                     : No
    Forced                      : No
    
    Text #3
    ID                          : 5
    Format                      : PGS
    Muxing mode                 : zlib
    Codec ID                    : S_HDMV/PGS
    Codec ID/Info               : Picture based subtitle format used on BDs/HD-DVDs
    Duration                    : 1 h 34 min
    Bit rate                    : 22.2 kb/s
    Count of elements           : 2232
    Stream size                 : 15.0 MiB (0%)
    Language                    : Italian
    Default                     : No
    Forced                      : No
    
    Text #4
    ID                          : 6
    Format                      : PGS
    Muxing mode                 : zlib
    Codec ID                    : S_HDMV/PGS
    Codec ID/Info               : Picture based subtitle format used on BDs/HD-DVDs
    Duration                    : 1 h 4 min
    Bit rate                    : 206 b/s
    Count of elements           : 16
    Stream size                 : 96.7 KiB (0%)
    Language                    : Spanish
    Default                     : No
    Forced                      : No
    
    Text #5
    ID                          : 7
    Format                      : PGS
    Muxing mode                 : zlib
    Codec ID                    : S_HDMV/PGS
    Codec ID/Info               : Picture based subtitle format used on BDs/HD-DVDs
    Duration                    : 1 h 34 min
    Bit rate                    : 21.4 kb/s
    Count of elements           : 2286
    Stream size                 : 14.4 MiB (0%)
    Language                    : Spanish
    Default                     : No
    Forced                      : No
    
    Menu
    00:00:00.000                : :Chapter 1
    00:12:42.875                : :Chapter 2
    00:30:13.042                : :Chapter 3
    00:45:03.750                : :Chapter 4
    01:00:15.750                : :Chapter 5
    01:10:24.292                : :Chapter 6
    01:24:53.292                : :Chapter 7
    01:33:46.292                : :Chapter 8
    Download - Mirror 1:
    Download - Mirror 2:
     
  2. Loading...


Share This Page