Google Drive Godzilla.2014.2160p.UHD.BluRay.x265-SURCODE

Discussion in 'BDRip | 4K' started by DDLbase, Mar 24, 2021.

  1. DDLbase

    DDLbase Administrator Staff Member

    [​IMG]

    Rating: 6.4/10 based on 380,792 user ratings

    Genres: Action, Adventure, Sci-Fi, Thriller

    The world is beset by the appearance of monstrous creatures, but one of them may be the only one who can save humanity.

    [​IMG]
    Code:
    General
    Unique ID                   : 143638067434369465165527368441781151166 (0x6C0FAF7E6856D49ABAC3C7F32331E5BE)
    Complete name               : Godzilla.2014.2160p.UHD.BluRay.x265-SURCODE.mkv
    Format                      : Matroska
    Format version              : Version 4
    File size                   : 24.6 GiB
    Duration                    : 2 h 3 min
    Overall bit rate mode       : Variable
    Overall bit rate            : 28.6 Mb/s
    Movie name                  : Godzilla
    Encoded date                : UTC 2021-03-22 21:33:47
    Writing application         : mkvmerge v31.0.0 ('Dolores In A Shoestand') 64-bit
    Writing library             : libebml v1.3.6 + libmatroska v1.4.9
    
    Video
    ID                          : 1
    Format                      : HEVC
    Format/Info                 : High Efficiency Video Coding
    Format profile              : Main [email protected]@High
    HDR format                  : SMPTE ST 2086, HDR10 compatible
    Codec ID                    : V_MPEGH/ISO/HEVC
    Duration                    : 2 h 3 min
    Bit rate                    : 24.5 Mb/s
    Width                       : 3 840 pixels
    Height                      : 1 608 pixels
    Display aspect ratio        : 2.40:1
    Frame rate mode             : Constant
    Frame rate                  : 23.976 (24000/1001) FPS
    Color space                 : YUV
    Chroma subsampling          : 4:2:0 (Type 2)
    Bit depth                   : 10 bits
    Bits/(Pixel*Frame)          : 0.166
    Stream size                 : 21.1 GiB (86%)
    Writing library             : x265 3.4+36-5239276dd:[Windows][MSVC 1900][64 bit] 10bit
    Encoding settings           : cpuid=1111039 / frame-threads=5 / numa-pools=32 / wpp / no-pmode / no-pme / no-psnr / no-ssim / log-level=2 / input-csp=1 / input-res=3840x1608 / interlace=0 / total-frames=177091 / level-idc=51 / high-tier=1 / uhd-bd=0 / ref=4 / no-allow-non-conformance / repeat-headers / annexb / aud / hrd / info / hash=0 / no-temporal-layers / no-open-gop / min-keyint=23 / keyint=250 / gop-lookahead=0 / bframes=4 / b-adapt=2 / b-pyramid / bframe-bias=0 / rc-lookahead=25 / lookahead-slices=4 / scenecut=40 / hist-scenecut=0 / radl=0 / no-splice / no-intra-refresh / ctu=64 / min-cu-size=8 / rect / no-amp / max-tu-size=32 / tu-inter-depth=1 / tu-intra-depth=1 / limit-tu=0 / rdoq-level=2 / dynamic-rd=0.00 / no-ssim-rd / signhide / no-tskip / nr-intra=0 / nr-inter=0 / no-constrained-intra / no-strong-intra-smoothing / max-merge=3 / limit-refs=3 / limit-modes / me=3 / subme=3 / merange=57 / temporal-mvp / no-frame-dup / no-hme / weightp / no-weightb / no-analyze-src-pics / deblock=-3:-3 / no-sao / no-sao-non-deblock / rd=4 / selective-sao=0 / no-early-skip / rskip / no-fast-intra / no-tskip-fast / no-cu-lossless / no-b-intra / no-splitrd-skip / rdpenalty=0 / psy-rd=2.00 / psy-rdoq=1.00 / no-rd-refine / no-lossless / cbqpoffs=0 / crqpoffs=0 / rc=crf / crf=13.0 / qcomp=0.60 / qpstep=4 / stats-write=0 / stats-read=0 / vbv-maxrate=160000 / vbv-bufsize=160000 / vbv-init=0.9 / min-vbv-fullness=50.0 / max-vbv-fullness=80.0 / crf-max=0.0 / crf-min=0.0 / ipratio=1.40 / pbratio=1.30 / aq-mode=2 / aq-strength=1.00 / cutree / zone-count=0 / no-strict-cbr / qg-size=32 / no-rc-grain / qpmax=69 / qpmin=0 / no-const-vbv / sar=1 / overscan=0 / videoformat=5 / range=0 / colorprim=9 / transfer=16 / colormatrix=9 / chromaloc=1 / chromaloc-top=2 / chromaloc-bottom=2 / display-window=0 / master-display=G(13250,34500)B(7500,3000)R(34000,16000)WP(15635,16450)L(40000000,50) / cll=498,92 / min-luma=0 / max-luma=1023 / log2-max-poc-lsb=8 / vui-timing-info / vui-hrd-info / slices=1 / no-opt-qp-pps / no-opt-ref-list-length-pps / no-multi-pass-opt-rps / scenecut-bias=0.05 / hist-threshold=0.03 / no-opt-cu-delta-qp / no-aq-motion / hdr10 / hdr10-opt / no-dhdr10-opt / no-idr-recovery-sei / analysis-reuse-level=0 / analysis-save-reuse-level=0 / analysis-load-reuse-level=0 / scale-factor=0 / refine-intra=0 / refine-inter=0 / refine-mv=1 / refine-ctu-distortion=0 / no-limit-sao / ctu-info=0 / no-lowpass-dct / refine-analysis-type=0 / copy-pic=1 / max-ausize-factor=1.0 / no-dynamic-refine / no-single-sei / no-hevc-aq / no-svt / no-field / qp-adaptation-range=1.00 / scenecut-aware-qp=0conformance-window-offsets / right=0 / bottom=0 / decoder-max-rate=0 / no-vbv-live-multi-pass
    Language                    : English
    Default                     : Yes
    Forced                      : No
    Color range                 : Limited
    Color primaries             : BT.2020
    Transfer characteristics    : PQ
    Matrix coefficients         : BT.2020 non-constant
    Mastering display color pri : Display P3
    Mastering display luminance : min: 0.0050 cd/m2, max: 4000 cd/m2
    Maximum Content Light Level : 498 cd/m2
    Maximum Frame-Average Light : 92 cd/m2
    
    Audio #1
    ID                          : 2
    Format                      : MLP FBA 16-ch
    Format/Info                 : Meridian Lossless Packing FBA with 16-channel presentation
    Commercial name             : Dolby TrueHD with Dolby Atmos
    Codec ID                    : A_TRUEHD
    Duration                    : 2 h 3 min
    Bit rate mode               : Variable
    Bit rate                    : 3 247 kb/s
    Maximum bit rate            : 5 118 kb/s
    Channel(s)                  : 8 channels
    Channel layout              : L R C LFE Ls Rs Lb Rb
    Sampling rate               : 48.0 kHz
    Frame rate                  : 1 200.000 FPS (40 SPF)
    Compression mode            : Lossless
    Stream size                 : 2.79 GiB (11%)
    Title                       : Surround 7.1
    Language                    : English
    Default                     : Yes
    Forced                      : No
    Number of dynamic objects   : 11
    Bed channel count           : 1 channel
    Bed channel configuration   : LFE
    
    Audio #2
    ID                          : 3
    Format                      : AC-3
    Format/Info                 : Audio Coding 3
    Commercial name             : Dolby Digital
    Codec ID                    : A_AC3
    Duration                    : 2 h 3 min
    Bit rate mode               : Constant
    Bit rate                    : 448 kb/s
    Channel(s)                  : 6 channels
    Channel layout              : L R C LFE Ls Rs
    Sampling rate               : 48.0 kHz
    Frame rate                  : 31.250 FPS (1536 SPF)
    Compression mode            : Lossy
    Stream size                 : 394 MiB (2%)
    Title                       : Surround 5.1
    Language                    : English
    Service kind                : Complete Main
    Default                     : No
    Forced                      : No
    
    Audio #3
    ID                          : 4
    Format                      : AAC LC
    Format/Info                 : Advanced Audio Codec Low Complexity
    Codec ID                    : A_AAC-2
    Duration                    : 2 h 3 min
    Bit rate                    : 122 kb/s
    Channel(s)                  : 2 channels
    Channel layout              : L R
    Sampling rate               : 48.0 kHz
    Frame rate                  : 46.875 FPS (1024 SPF)
    Compression mode            : Lossy
    Delay relative to video     : 9 ms
    Stream size                 : 107 MiB (0%)
    Title                       : commentary
    Language                    : English
    Default                     : No
    Forced                      : No
    
    Text #1
    ID                          : 5
    Format                      : PGS
    Muxing mode                 : zlib
    Codec ID                    : S_HDMV/PGS
    Codec ID/Info               : Picture based subtitle format used on BDs/HD-DVDs
    Duration                    : 1 h 55 min
    Bit rate                    : 29.4 kb/s
    Count of elements           : 2912
    Stream size                 : 24.3 MiB (0%)
    Language                    : English
    Default                     : No
    Forced                      : No
    
    Text #2
    ID                          : 6
    Format                      : PGS
    Muxing mode                 : zlib
    Codec ID                    : S_HDMV/PGS
    Codec ID/Info               : Picture based subtitle format used on BDs/HD-DVDs
    Duration                    : 2 h 2 min
    Bit rate                    : 17.0 kb/s
    Count of elements           : 2008
    Stream size                 : 14.9 MiB (0%)
    Language                    : French
    Default                     : No
    Forced                      : No
    
    Text #3
    ID                          : 7
    Format                      : PGS
    Muxing mode                 : zlib
    Codec ID                    : S_HDMV/PGS
    Codec ID/Info               : Picture based subtitle format used on BDs/HD-DVDs
    Duration                    : 2 h 2 min
    Bit rate                    : 31.5 kb/s
    Count of elements           : 2880
    Stream size                 : 27.5 MiB (0%)
    Language                    : German
    Default                     : No
    Forced                      : No
    
    Text #4
    ID                          : 8
    Format                      : PGS
    Muxing mode                 : zlib
    Codec ID                    : S_HDMV/PGS
    Codec ID/Info               : Picture based subtitle format used on BDs/HD-DVDs
    Duration                    : 2 h 2 min
    Bit rate                    : 28.6 kb/s
    Count of elements           : 2920
    Stream size                 : 25.0 MiB (0%)
    Language                    : Italian
    Default                     : No
    Forced                      : No
    
    Text #5
    ID                          : 9
    Format                      : PGS
    Muxing mode                 : zlib
    Codec ID                    : S_HDMV/PGS
    Codec ID/Info               : Picture based subtitle format used on BDs/HD-DVDs
    Duration                    : 2 h 2 min
    Bit rate                    : 23.1 kb/s
    Count of elements           : 2296
    Stream size                 : 20.2 MiB (0%)
    Language                    : Spanish
    Default                     : No
    Forced                      : No
    
    Text #6
    ID                          : 10
    Format                      : PGS
    Muxing mode                 : zlib
    Codec ID                    : S_HDMV/PGS
    Codec ID/Info               : Picture based subtitle format used on BDs/HD-DVDs
    Duration                    : 2 h 2 min
    Bit rate                    : 18.0 kb/s
    Count of elements           : 1844
    Stream size                 : 15.8 MiB (0%)
    Language                    : Dutch
    Default                     : No
    Forced                      : No
    
    Text #7
    ID                          : 11
    Format                      : PGS
    Muxing mode                 : zlib
    Codec ID                    : S_HDMV/PGS
    Codec ID/Info               : Picture based subtitle format used on BDs/HD-DVDs
    Duration                    : 2 h 2 min
    Bit rate                    : 19.9 kb/s
    Count of elements           : 2404
    Stream size                 : 17.4 MiB (0%)
    Language                    : Chinese
    Default                     : No
    Forced                      : No
    
    Text #8
    ID                          : 12
    Format                      : PGS
    Muxing mode                 : zlib
    Codec ID                    : S_HDMV/PGS
    Codec ID/Info               : Picture based subtitle format used on BDs/HD-DVDs
    Duration                    : 2 h 2 min
    Bit rate                    : 16.6 kb/s
    Count of elements           : 2400
    Stream size                 : 14.5 MiB (0%)
    Language                    : Korean
    Default                     : No
    Forced                      : No
    
    Text #9
    ID                          : 13
    Format                      : PGS
    Muxing mode                 : zlib
    Codec ID                    : S_HDMV/PGS
    Codec ID/Info               : Picture based subtitle format used on BDs/HD-DVDs
    Duration                    : 2 h 2 min
    Bit rate                    : 22.7 kb/s
    Count of elements           : 2330
    Stream size                 : 19.9 MiB (0%)
    Language                    : Spanish
    Default                     : No
    Forced                      : No
    
    Text #10
    ID                          : 14
    Format                      : PGS
    Muxing mode                 : zlib
    Codec ID                    : S_HDMV/PGS
    Codec ID/Info               : Picture based subtitle format used on BDs/HD-DVDs
    Duration                    : 2 h 2 min
    Bit rate                    : 20.4 kb/s
    Count of elements           : 2310
    Stream size                 : 17.8 MiB (0%)
    Language                    : Czech
    Default                     : No
    Forced                      : No
    
    Text #11
    ID                          : 15
    Format                      : PGS
    Muxing mode                 : zlib
    Codec ID                    : S_HDMV/PGS
    Codec ID/Info               : Picture based subtitle format used on BDs/HD-DVDs
    Duration                    : 2 h 2 min
    Bit rate                    : 18.6 kb/s
    Count of elements           : 2210
    Stream size                 : 16.3 MiB (0%)
    Language                    : Danish
    Default                     : No
    Forced                      : No
    
    Text #12
    ID                          : 16
    Format                      : PGS
    Muxing mode                 : zlib
    Codec ID                    : S_HDMV/PGS
    Codec ID/Info               : Picture based subtitle format used on BDs/HD-DVDs
    Duration                    : 2 h 1 min
    Bit rate                    : 17.4 kb/s
    Count of elements           : 1994
    Stream size                 : 15.0 MiB (0%)
    Language                    : Finnish
    Default                     : No
    Forced                      : No
    
    Text #13
    ID                          : 17
    Format                      : PGS
    Muxing mode                 : zlib
    Codec ID                    : S_HDMV/PGS
    Codec ID/Info               : Picture based subtitle format used on BDs/HD-DVDs
    Duration                    : 2 h 2 min
    Bit rate                    : 22.1 kb/s
    Count of elements           : 2266
    Stream size                 : 19.4 MiB (0%)
    Language                    : Hungarian
    Default                     : No
    Forced                      : No
    
    Text #14
    ID                          : 18
    Format                      : PGS
    Muxing mode                 : zlib
    Codec ID                    : S_HDMV/PGS
    Codec ID/Info               : Picture based subtitle format used on BDs/HD-DVDs
    Duration                    : 2 h 2 min
    Bit rate                    : 18.4 kb/s
    Count of elements           : 2232
    Stream size                 : 16.1 MiB (0%)
    Language                    : Norwegian
    Default                     : No
    Forced                      : No
    
    Text #15
    ID                          : 19
    Format                      : PGS
    Muxing mode                 : zlib
    Codec ID                    : S_HDMV/PGS
    Codec ID/Info               : Picture based subtitle format used on BDs/HD-DVDs
    Duration                    : 2 h 2 min
    Bit rate                    : 17.4 kb/s
    Count of elements           : 2200
    Stream size                 : 15.2 MiB (0%)
    Language                    : Polish
    Default                     : No
    Forced                      : No
    
    Text #16
    ID                          : 20
    Format                      : PGS
    Muxing mode                 : zlib
    Codec ID                    : S_HDMV/PGS
    Codec ID/Info               : Picture based subtitle format used on BDs/HD-DVDs
    Duration                    : 2 h 2 min
    Bit rate                    : 20.3 kb/s
    Count of elements           : 2374
    Stream size                 : 17.8 MiB (0%)
    Language                    : Romanian
    Default                     : No
    Forced                      : No
    
    Text #17
    ID                          : 21
    Format                      : PGS
    Muxing mode                 : zlib
    Codec ID                    : S_HDMV/PGS
    Codec ID/Info               : Picture based subtitle format used on BDs/HD-DVDs
    Duration                    : 2 h 2 min
    Bit rate                    : 19.6 kb/s
    Count of elements           : 2092
    Stream size                 : 17.1 MiB (0%)
    Language                    : Swedish
    Default                     : No
    Forced                      : No
    
    Text #18
    ID                          : 22
    Format                      : PGS
    Muxing mode                 : zlib
    Codec ID                    : S_HDMV/PGS
    Codec ID/Info               : Picture based subtitle format used on BDs/HD-DVDs
    Duration                    : 2 h 2 min
    Bit rate                    : 21.9 kb/s
    Count of elements           : 2242
    Stream size                 : 19.1 MiB (0%)
    Language                    : Thai
    Default                     : No
    Forced                      : No
    
    Text #19
    ID                          : 23
    Format                      : PGS
    Muxing mode                 : zlib
    Codec ID                    : S_HDMV/PGS
    Codec ID/Info               : Picture based subtitle format used on BDs/HD-DVDs
    Duration                    : 1 h 54 min
    Bit rate                    : 481 b/s
    Count of elements           : 44
    Stream size                 : 403 KiB (0%)
    Language                    : French
    Default                     : No
    Forced                      : No
    
    Text #20
    ID                          : 24
    Format                      : PGS
    Muxing mode                 : zlib
    Codec ID                    : S_HDMV/PGS
    Codec ID/Info               : Picture based subtitle format used on BDs/HD-DVDs
    Duration                    : 1 h 54 min
    Bit rate                    : 475 b/s
    Count of elements           : 40
    Stream size                 : 399 KiB (0%)
    Language                    : German
    Default                     : No
    Forced                      : No
    
    Text #21
    ID                          : 25
    Format                      : PGS
    Muxing mode                 : zlib
    Codec ID                    : S_HDMV/PGS
    Codec ID/Info               : Picture based subtitle format used on BDs/HD-DVDs
    Duration                    : 2 h 2 min
    Bit rate                    : 925 b/s
    Count of elements           : 80
    Stream size                 : 829 KiB (0%)
    Language                    : Italian
    Default                     : No
    Forced                      : No
    
    Text #22
    ID                          : 26
    Format                      : PGS
    Muxing mode                 : zlib
    Codec ID                    : S_HDMV/PGS
    Codec ID/Info               : Picture based subtitle format used on BDs/HD-DVDs
    Duration                    : 1 h 54 min
    Bit rate                    : 1 088 b/s
    Count of elements           : 88
    Stream size                 : 912 KiB (0%)
    Language                    : Spanish
    Default                     : No
    Forced                      : No
    
    Text #23
    ID                          : 27
    Format                      : PGS
    Muxing mode                 : zlib
    Codec ID                    : S_HDMV/PGS
    Codec ID/Info               : Picture based subtitle format used on BDs/HD-DVDs
    Duration                    : 2 h 2 min
    Bit rate                    : 772 b/s
    Count of elements           : 64
    Stream size                 : 691 KiB (0%)
    Language                    : Spanish
    Default                     : No
    Forced                      : No
    
    Text #24
    ID                          : 28
    Format                      : PGS
    Muxing mode                 : zlib
    Codec ID                    : S_HDMV/PGS
    Codec ID/Info               : Picture based subtitle format used on BDs/HD-DVDs
    Duration                    : 2 h 2 min
    Bit rate                    : 726 b/s
    Count of elements           : 76
    Stream size                 : 650 KiB (0%)
    Language                    : Czech
    Default                     : No
    Forced                      : No
    
    Text #25
    ID                          : 29
    Format                      : PGS
    Muxing mode                 : zlib
    Codec ID                    : S_HDMV/PGS
    Codec ID/Info               : Picture based subtitle format used on BDs/HD-DVDs
    Duration                    : 2 h 2 min
    Bit rate                    : 678 b/s
    Count of elements           : 58
    Stream size                 : 607 KiB (0%)
    Language                    : Hungarian
    Default                     : No
    Forced                      : No
    
    Menu
    00:00:00.000                : en:Chapter 01
    00:09:21.185                : en:Chapter 02
    00:19:01.849                : en:Chapter 03
    00:30:24.489                : en:Chapter 04
    00:39:09.055                : en:Chapter 05
    00:49:42.396                : en:Chapter 06
    00:59:26.145                : en:Chapter 07
    01:09:49.059                : en:Chapter 08
    01:19:09.911                : en:Chapter 09
    01:29:55.973                : en:Chapter 10
    01:40:13.465                : en:Chapter 11
    01:52:14.269                : en:Chapter 12
    01:56:08.920                : en:Chapter 13
    Download - Mirror 1:
    Download - Mirror 2:
     
  2. Loading...


Share This Page