Google Drive Godzilla.vs..Kong.2021.1080p.HMAX.WEB-DL.DDP.5.1.Atmos.DV.H.265-FLUX

Discussion in 'Web-DL / Webrip | 1080p' started by DDLbase, Mar 31, 2021.

  1. DDLbase

    DDLbase Administrator Staff Member

    [​IMG]

    Rating: 7.4/10 based on 15,357 user ratings

    Genres: Action, Sci-Fi, Thriller

    The epic next chapter in the cinematic Monsterverse pits two of the greatest icons in motion picture history against one another – the fearsome Godzilla and the mighty Kong – with humanity caught in the balance.

    [​IMG]
    Code:
    General
    Complete name               : Godzilla.vs..Kong.2021.1080p.HMAX.WEB-DL.DDP.5.1.Atmos.DV.H.265-FLUX.mp4
    Format                      : MPEG-4
    Format profile              : Base Media / Version 2
    Codec ID                    : mp42 (isom/mp42/dby1)
    File size                   : 5.76 GiB
    Duration                    : 1 h 53 min
    Overall bit rate mode       : Variable
    Overall bit rate            : 7 294 kb/s
    Encoded date                : UTC 2021-03-31 07:16:52
    Tagged date                 : UTC 2021-03-31 07:16:52
    
    Video
    ID                          : 1
    Format                      : HEVC
    Format/Info                 : High Efficiency Video Coding
    Format profile              : Main [email protected]@Main
    HDR format                  : Dolby Vision, Version 1.0, dvhe.05.03, BL+RPU
    Codec ID                    : dvhe
    Codec ID/Info               : High Efficiency Video Coding with Dolby Vision
    Duration                    : 1 h 53 min
    Bit rate                    : 6 523 kb/s
    Width                       : 1 920 pixels
    Height                      : 1 080 pixels
    Display aspect ratio        : 16:9
    Frame rate mode             : Constant
    Frame rate                  : 23.976 (24000/1001) FPS
    Color space                 : YUV
    Chroma subsampling          : 4:2:0
    Bit depth                   : 10 bits
    Bits/(Pixel*Frame)          : 0.131
    Stream size                 : 5.16 GiB (89%)
    Writing library             : x265 3.4hy:[Linux][GCC 7.5.0][64 bit] 10bit
    Encoding settings           : cpuid=1111039 / frame-threads=1 / wpp / no-pmode / no-pme / no-psnr / no-ssim / log-level=2 / input-csp=1 / input-res=1920x1080 / interlace=0 / total-frames=0 / level-idc=0 / high-tier=1 / uhd-bd=0 / ref=4 / no-allow-non-conformance / repeat-headers / annexb / aud / hrd / info / hash=0 / no-temporal-layers / no-open-gop / min-keyint=96 / keyint=96 / gop-lookahead=0 / bframes=4 / b-adapt=2 / b-pyramid / bframe-bias=0 / rc-lookahead=25 / lookahead-slices=4 / scenecut=40 / hist-scenecut=0 / radl=0 / no-splice / no-intra-refresh / ctu=64 / min-cu-size=8 / rect / no-amp / max-tu-size=32 / tu-inter-depth=1 / tu-intra-depth=1 / limit-tu=0 / rdoq-level=2 / dynamic-rd=0.00 / no-ssim-rd / signhide / no-tskip / nr-intra=0 / nr-inter=0 / no-constrained-intra / strong-intra-smoothing / max-merge=3 / limit-refs=3 / limit-modes / me=3 / subme=3 / merange=57 / temporal-mvp / no-frame-dup / no-hme / weightp / no-weightb / no-analyze-src-pics / deblock=0:0 / sao / no-sao-non-deblock / rd=4 / selective-sao=4 / no-early-skip / rskip / no-fast-intra / no-tskip-fast / no-cu-lossless / no-b-intra / no-splitrd-skip / rdpenalty=0 / psy-rd=2.00 / psy-rdoq=1.00 / no-rd-refine / no-lossless / cbqpoffs=0 / crqpoffs=3 / rc=abr / bitrate=6500 / qcomp=0.60 / qpstep=4 / stats-write=0 / stats-read=2 / cplxblur=20.0 / qblur=0.5 / vbv-maxrate=9750 / vbv-bufsize=9750 / vbv-init=0.6 / vbv-end=0.6 / vbv-end-fr-adj=0.0 / ipratio=1.40 / pbratio=1.30 / aq-mode=2 / aq-strength=1.00 / cutree / zone-count=0 / no-strict-cbr / qg-size=32 / no-rc-grain / qpmax=69 / qpmin=0 / no-const-vbv / sar=1 / overscan=0 / videoformat=5 / range=1 / colorprim=2 / transfer=2 / colormatrix=2 / chromaloc=0 / display-window=0 / cll=0,0 / min-luma=0 / max-luma=1023 / log2-max-poc-lsb=8 / vui-timing-info / vui-hrd-info / no-concatenation / slices=1 / no-opt-qp-pps / no-opt-ref-list-length-pps / no-multi-pass-opt-rps / scenecut-bias=0.05 / hist-threshold=0.01 / no-opt-cu-delta-qp / no-aq-motion / no-hdr10 / no-hdr10-opt / no-dhdr10-opt / no-idr-recovery-sei / analysis-reuse-level=0 / analysis-save-reuse-level=0 / analysis-load-reuse-level=0 / scale-factor=0 / refine-intra=0 / refine-inter=0 / refine-mv=1 / refine-ctu-distortion=0 / no-limit-sao / ctu-info=0 / no-lowpass-dct / refine-analysis-type=0 / copy-pic=1 / max-ausize-factor=1.0 / no-dynamic-refine / no-single-sei / no-hevc-aq / no-svt / no-field / qp-adaptation-range=1.00 / no-scenecut-aware-qpconformance-window-offsets / right=0 / bottom=0 / decoder-max-rate=0
    Default                     : Yes
    Alternate group             : 1
    Encoded date                : UTC 2021-03-31 07:08:16
    Tagged date                 : UTC 2021-03-31 07:17:22
    Color range                 : Full
    Codec configuration box     : hvcC+dvcC
    
    Audio
    ID                          : 2
    Format                      : E-AC-3 JOC
    Format/Info                 : Enhanced AC-3 with Joint Object Coding
    Commercial name             : Dolby Digital Plus with Dolby Atmos
    Codec ID                    : ec-3
    Duration                    : 1 h 53 min
    Bit rate mode               : Constant
    Bit rate                    : 768 kb/s
    Maximum bit rate            : 811 kb/s
    Channel(s)                  : 6 channels
    Channel layout              : L R C LFE Ls Rs
    Sampling rate               : 48.0 kHz
    Frame rate                  : 31.250 FPS (1536 SPF)
    Compression mode            : Lossy
    Stream size                 : 622 MiB (11%)
    Title                       : English
    Language                    : English
    Service kind                : Complete Main
    Encoded date                : UTC 2021-03-31 07:16:57
    Tagged date                 : UTC 2021-03-31 07:17:22
    Complexity index            : Not present / 16
    Number of dynamic objects   : 15
    Bed channel count           : 1 channel
    Bed channel configuration   : LFE
    
    Text #1
    ID                          : 3
    Format                      : Timed Text
    Codec ID                    : tx3g
    Duration                    : 1 h 46 min
    Bit rate mode               : Variable
    Bit rate                    : 55 b/s
    Stream size                 : 42.7 KiB (0%)
    Title                       : English
    Language                    : English
    Forced                      : No
    Encoded date                : UTC 2021-03-31 07:17:21
    Tagged date                 : UTC 2021-03-31 07:17:22
    
    Text #2
    ID                          : 4
    Format                      : Timed Text
    Codec ID                    : tx3g
    Duration                    : 1 h 52 min
    Bit rate mode               : Variable
    Bit rate                    : 52 b/s
    Stream size                 : 42.7 KiB (0%)
    Title                       : Spanish
    Language                    : Spanish
    Forced                      : No
    Encoded date                : UTC 2021-03-31 07:17:22
    Tagged date                 : UTC 2021-03-31 07:17:22
    Download - Mirror 1:
    Download - Mirror 2:
     
  2. Loading...


Share This Page