Google Drive Gosford.Park.2001.REMASTERED.1080p.BluRay.x264-AMIABLE

Discussion in 'BDRip | 720p/1080p' started by DDLbase, Aug 20, 2021.

  1. DDLbase

    DDLbase Administrator Staff Member

    [​IMG]

    Rating: 7.2/10 based on 83,350 user ratings

    Genres: Comedy, Drama, Mystery

    The lives of upstairs guests and downstairs servants at a party in 1932 in a country house in England as they investigate a murder involving one of them.

    [​IMG]
    Code:
    General
    Unique ID                   : 0 (0x0)
    Complete name               : Gosford.Park.2001.REMASTERED.1080p.BluRay.x264-AMIABLE.mkv
    Format                      : Matroska
    Format version              : Version 4
    File size                   : 13.1 GiB
    Duration                    : 2 h 17 min
    Overall bit rate            : 13.7 Mb/s
    Encoded date                : UTC 2010-02-22 21:41:29
    Writing application         : no_variable_data
    Writing library             : no_variable_data
    
    Video
    ID                          : 1
    Format                      : AVC
    Format/Info                 : Advanced Video Codec
    Format profile              : [email protected]
    Format settings             : CABAC / 5 Ref Frames
    Format settings, CABAC      : Yes
    Format settings, Reference  : 5 frames
    Codec ID                    : V_MPEG4/ISO/AVC
    Duration                    : 2 h 17 min
    Bit rate                    : 12.9 Mb/s
    Width                       : 1 920 pixels
    Height                      : 824 pixels
    Display aspect ratio        : 2.35:1
    Frame rate mode             : Constant
    Frame rate                  : 23.976 (24000/1001) FPS
    Color space                 : YUV
    Chroma subsampling          : 4:2:0
    Bit depth                   : 8 bits
    Scan type                   : Progressive
    Bits/(Pixel*Frame)          : 0.341
    Stream size                 : 12.1 GiB (92%)
    Writing library             : x264 core 157 r2935 545de2f
    Encoding settings           : cabac=1 / ref=5 / deblock=1:-3:-3 / analyse=0x3:0x133 / me=umh / subme=10 / psy=1 / psy_rd=1.10:0.00 / mixed_ref=1 / me_range=48 / chroma_me=1 / trellis=2 / 8x8dct=1 / cqm=0 / deadzone=21,11 / fast_pskip=0 / chroma_qp_offset=-2 / threads=26 / lookahead_threads=4 / sliced_threads=0 / nr=0 / decimate=1 / interlaced=0 / bluray_compat=0 / constrained_intra=0 / bframes=8 / b_pyramid=2 / b_adapt=2 / b_bias=0 / direct=3 / weightb=1 / open_gop=0 / weightp=2 / keyint=240 / keyint_min=24 / scenecut=40 / intra_refresh=0 / rc_lookahead=60 / rc=2pass / mbtree=1 / bitrate=12940 / ratetol=1.0 / qcomp=0.60 / qpmin=0 / qpmax=69 / qpstep=4 / cplxblur=20.0 / qblur=0.5 / ip_ratio=1.20 / aq=3:0.75
    Default                     : Yes
    Forced                      : No
    Statistics Tags Issue       : no_variable_data 1970-01-01 00:00:00 / no_variable_data 2010-02-22 21:41:29
    FromStats_BitRate           : 12936808
    FromStats_Duration          : 02:17:01.213000000
    FromStats_FrameCount        : 197112
    FromStats_StreamSize        : 13294532091
    
    Audio
    ID                          : 2
    Format                      : DTS
    Format/Info                 : Digital Theater Systems
    Codec ID                    : A_DTS
    Duration                    : 2 h 17 min
    Bit rate mode               : Constant
    Bit rate                    : 768 kb/s
    Channel(s)                  : 6 channels
    Channel layout              : C L R Ls Rs LFE
    Sampling rate               : 48.0 kHz
    Frame rate                  : 93.750 FPS (512 SPF)
    Bit depth                   : 24 bits
    Compression mode            : Lossy
    Stream size                 : 753 MiB (6%)
    Language                    : English
    Default                     : Yes
    Forced                      : No
    Statistics Tags Issue       : no_variable_data 1970-01-01 00:00:00 / no_variable_data 2010-02-22 21:41:29
    FromStats_BitRate           : 767999
    FromStats_Duration          : 02:17:01.302000000
    FromStats_FrameCount        : 770747
    FromStats_StreamSize        : 789244928
    
    Text #1
    ID                          : 3
    Format                      : UTF-8
    Codec ID                    : S_TEXT/UTF8
    Codec ID/Info               : UTF-8 Plain Text
    Language                    : English
    Default                     : No
    Forced                      : No
    Statistics Tags Issue       : no_variable_data 1970-01-01 00:00:00 / no_variable_data 2010-02-22 21:41:29
    FromStats_BitRate           : 82
    FromStats_Duration          : 02:13:18.490000000
    FromStats_FrameCount        : 1986
    FromStats_StreamSize        : 82158
    
    Text #2
    ID                          : 4
    Format                      : UTF-8
    Codec ID                    : S_TEXT/UTF8
    Codec ID/Info               : UTF-8 Plain Text
    Title                       : SDH
    Language                    : English
    Default                     : No
    Forced                      : No
    Statistics Tags Issue       : no_variable_data 1970-01-01 00:00:00 / no_variable_data 2010-02-22 21:41:29
    FromStats_BitRate           : 84
    FromStats_Duration          : 02:13:50.981000000
    FromStats_FrameCount        : 2048
    FromStats_StreamSize        : 85304
    
    Menu
    00:00:00.000                : en:00:00:00.000
    00:10:57.657                : en:00:10:57.657
    00:21:22.531                : en:00:21:22.531
    00:34:36.783                : en:00:34:36.783
    00:42:44.061                : en:00:42:44.061
    00:51:40.556                : en:00:51:40.556
    01:07:44.394                : en:01:07:44.394
    01:22:05.295                : en:01:22:05.295
    01:32:59.407                : en:01:32:59.407
    01:44:18.711                : en:01:44:18.711
    01:51:51.413                : en:01:51:51.413
    02:02:06.402                : en:02:02:06.402
    Download - Mirror 1:
    Download - Mirror 2:
     
  2. Loading...


Share This Page