Google Drive Guardians of the Galaxy 2014 2160p BluRay REMUX HEVC 7.1 Atmos-PTHOME

Discussion in 'BD REMUX | 4K' started by DDLbase, Apr 8, 2020.

  1. DDLbase

    DDLbase Administrator Staff Member

    [​IMG]

    Genres: Action, Adventure, Comedy, Sci-Fi

    A group of intergalactic criminals must pull together to stop a fanatical warrior with plans to purge the universe.

    [​IMG][​IMG]

    Code:
    General
    Complete name                            : Guardians of the Galaxy 2014 2160p BluRay REMUX HEVC DTS-HD MA TrueHD 7.1 Atmos-PTHOME.mkv
    Format                                  : Matroska
    Format version                          : Version 4 / Version 2
    File size                                : 57.1 GiB
    Duration                                : 2 h 0 min
    Overall bit rate mode                    : Variable
    Overall bit rate                        : 67.7 Mb/s
    Movie name                              : Guardians of the Galaxy 2014 2160p BluRay REMUX HEVC DTS-HD MA TrueHD 7.1 Atmos-PTHOME
    Encoded date                            : UTC 2019-10-01 04:38:02
    Writing application                      : mkvmerge v37.0.0 ('Leave It') 64-bit
    Writing library                          : libebml v1.3.9 + libmatroska v1.5.2
    Cover                                    : Yes
    Attachments                              : cover_land.jpg / small_cover.jpg / small_cover_land.jpg / cover.jpg
    
    Video
    ID                                      : 1
    Format                                  : HEVC
    Format/Info                              : High Efficiency Video Coding
    Format profile                          : Main [email protected]@High
    Codec ID                                : V_MPEGH/ISO/HEVC
    Duration                                : 2 h 0 min
    Bit rate                                : 49.6 Mb/s
    Width                                    : 3 840 pixels
    Height                                  : 2 160 pixels
    Display aspect ratio                    : 16:9
    Frame rate mode                          : Constant
    Frame rate                              : 23.976 (24000/1001) FPS
    Color space                              : YUV
    Chroma subsampling                      : 4:2:0 (Type 2)
    Bit depth                                : 10 bits
    Bits/(Pixel*Frame)                      : 0.249
    Stream size                              : 41.8 GiB (73%)
    Title                                    : Guardians of the Galaxy 2014 2160p BluRay REMUX HEVC DTS-HD MA TrueHD 7.1 Atmos-PTHOME
    Language                                : English
    Default                                  : No
    Forced                                  : No
    Color range                              : Limited
    Color primaries                          : BT.2020
    Transfer characteristics                : PQ
    Matrix coefficients                      : BT.2020 non-constant
    Mastering display color primaries        : Display P3
    Mastering display luminance              : min: 0.0050 cd/m2, max: 4000 cd/m2
    Maximum Content Light Level              : 577 cd/m2
    Maximum Frame-Average Light Level        : 512 cd/m2
    
    Audio #1
    ID                                      : 2
    Format                                  : TrueHD
    Format profile                          : TrueHD+Atmos / TrueHD
    Codec ID                                : A_TRUEHD
    Duration                                : 2 h 0 min
    Bit rate mode                            : Variable
    Bit rate                                : 4 299 kb/s
    Maximum bit rate                        : 7 017 kb/s
    Channel(s)                              : Object Based / 8 channels
    Channel positions                        : Object Based / Front: L C R, Side: L R, Back: L R, LFE
    Sampling rate                            :  / 48.0 kHz
    Frame rate                              : 1 200.000 FPS (40 SPF)
    Compression mode                        : Lossless
    Stream size                              : 3.63 GiB (6%)
    Title                                    : Guardians of the Galaxy 2014 2160p BluRay REMUX HEVC DTS-HD MA TrueHD 7.1 Atmos-PTHOME
    Language                                : English
    Default                                  : Yes
    Forced                                  : No
    
    Audio #2
    ID                                      : 3
    Format                                  : DTS
    Format/Info                              : Digital Theater Systems
    Format profile                          : MA / Core
    Codec ID                                : A_DTS
    Duration                                : 2 h 0 min
    Bit rate mode                            : Variable / Constant
    Bit rate                                : 4 065 kb/s / 1 509 kb/s
    Channel(s)                              : 8 channels / 6 channels
    Channel positions                        : Front: L C R, Side: L R, Back: L R, LFE / Front: L C R, Side: L R, LFE
    Sampling rate                            : 48.0 kHz
    Frame rate                              : 93.750 FPS (512 SPF)
    Bit depth                                : 24 bits
    Compression mode                        : Lossless / Lossy
    Stream size                              : 3.43 GiB (6%)
    Title                                    : Guardians of the Galaxy 2014 2160p BluRay REMUX HEVC DTS-HD MA TrueHD 7.1 Atmos-PTHOME
    Language                                : English
    Default                                  : No
    Forced                                  : No
    
    Audio #3
    ID                                      : 4
    Format                                  : AC-3
    Format/Info                              : Audio Coding 3
    Codec ID                                : A_AC3
    Duration                                : 2 h 0 min
    Bit rate mode                            : Constant
    Bit rate                                : 640 kb/s
    Channel(s)                              : 6 channels
    Channel positions                        : Front: L C R, Side: L R, LFE
    Sampling rate                            : 48.0 kHz
    Frame rate                              : 31.250 FPS (1536 SPF)
    Bit depth                                : 16 bits
    Compression mode                        : Lossy
    Stream size                              : 553 MiB (1%)
    Title                                    : Guardians of the Galaxy 2014 2160p BluRay REMUX HEVC DTS-HD MA TrueHD 7.1 Atmos-PTHOME
    Language                                : English
    Service kind                            : Complete Main
    Default                                  : No
    Forced                                  : No
    
    Audio #4
    ID                                      : 5
    Format                                  : AC-3
    Format/Info                              : Audio Coding 3
    Codec ID                                : A_AC3
    Duration                                : 2 h 0 min
    Bit rate mode                            : Constant
    Bit rate                                : 320 kb/s
    Channel(s)                              : 2 channels
    Channel positions                        : Front: L R
    Sampling rate                            : 48.0 kHz
    Frame rate                              : 31.250 FPS (1536 SPF)
    Bit depth                                : 16 bits
    Compression mode                        : Lossy
    Stream size                              : 277 MiB (0%)
    Title                                    : Guardians of the Galaxy 2014 2160p BluRay REMUX HEVC DTS-HD MA TrueHD 7.1 Atmos-PTHOME
    Language                                : English
    Service kind                            : Complete Main
    Default                                  : No
    Forced                                  : No
    
    Audio #5
    ID                                      : 6
    Format                                  : AC-3
    Format/Info                              : Audio Coding 3
    Codec ID                                : A_AC3
    Duration                                : 2 h 0 min
    Bit rate mode                            : Constant
    Bit rate                                : 640 kb/s
    Channel(s)                              : 6 channels
    Channel positions                        : Front: L C R, Side: L R, LFE
    Sampling rate                            : 48.0 kHz
    Frame rate                              : 31.250 FPS (1536 SPF)
    Bit depth                                : 16 bits
    Compression mode                        : Lossy
    Stream size                              : 553 MiB (1%)
    Title                                    : Guardians of the Galaxy 2014 2160p BluRay REMUX HEVC DTS-HD MA TrueHD 7.1 Atmos-PTHOME
    Language                                : French
    Service kind                            : Complete Main
    Default                                  : No
    Forced                                  : No
    
    Audio #6
    ID                                      : 7
    Format                                  : E-AC-3
    Format/Info                              : Enhanced Audio Coding 3
    Codec ID                                : A_EAC3
    Duration                                : 2 h 0 min
    Bit rate mode                            : Constant
    Bit rate                                : 500 b/s
    Channel(s)                              : 8 channels
    Channel(s)_Original                      : 6 channels
    Channel positions                        : Front: L C R, Side: L R, LFE
    Sampling rate                            : 48.0 kHz
    Frame rate                              : 187.500 FPS (256 SPF)
    Compression mode                        : Lossy
    Stream size                              : 885 MiB (2%)
    Title                                    : Guardians of the Galaxy 2014 2160p BluRay REMUX HEVC DTS-HD MA TrueHD 7.1 Atmos-PTHOME
    Language                                : French
    Service kind                            : Complete Main
    Default                                  : No
    Forced                                  : No
    
    Audio #7
    ID                                      : 8
    Format                                  : AC-3
    Format/Info                              : Audio Coding 3
    Codec ID                                : A_AC3
    Duration                                : 2 h 0 min
    Bit rate mode                            : Constant
    Bit rate                                : 576 kb/s
    Channel(s)                              : 6 channels
    Channel positions                        : Front: L C R, Side: L R, LFE
    Sampling rate                            : 48.0 kHz
    Frame rate                              : 31.250 FPS (1536 SPF)
    Bit depth                                : 16 bits
    Compression mode                        : Lossy
    Stream size                              : 498 MiB (1%)
    Title                                    : Guardians of the Galaxy 2014 2160p BluRay REMUX HEVC DTS-HD MA TrueHD 7.1 Atmos-PTHOME
    Language                                : French
    Service kind                            : Complete Main
    Default                                  : No
    Forced                                  : No
    
    Audio #8
    ID                                      : 9
    Format                                  : E-AC-3
    Format/Info                              : Enhanced Audio Coding 3
    Codec ID                                : A_EAC3
    Duration                                : 2 h 0 min
    Bit rate mode                            : Constant
    Bit rate                                : 500 b/s
    Channel(s)                              : 8 channels
    Channel(s)_Original                      : 6 channels
    Channel positions                        : Front: L C R, Side: L R, LFE
    Sampling rate                            : 48.0 kHz
    Frame rate                              : 187.500 FPS (256 SPF)
    Compression mode                        : Lossy
    Stream size                              : 885 MiB (2%)
    Title                                    : Guardians of the Galaxy 2014 2160p BluRay REMUX HEVC DTS-HD MA TrueHD 7.1 Atmos-PTHOME
    Language                                : Spanish
    Service kind                            : Complete Main
    Default                                  : No
    Forced                                  : No
    
    Audio #9
    ID                                      : 10
    Format                                  : AC-3
    Format/Info                              : Audio Coding 3
    Codec ID                                : A_AC3
    Duration                                : 2 h 0 min
    Bit rate mode                            : Constant
    Bit rate                                : 576 kb/s
    Channel(s)                              : 6 channels
    Channel positions                        : Front: L C R, Side: L R, LFE
    Sampling rate                            : 48.0 kHz
    Frame rate                              : 31.250 FPS (1536 SPF)
    Bit depth                                : 16 bits
    Compression mode                        : Lossy
    Stream size                              : 498 MiB (1%)
    Title                                    : Guardians of the Galaxy 2014 2160p BluRay REMUX HEVC DTS-HD MA TrueHD 7.1 Atmos-PTHOME
    Language                                : Spanish
    Service kind                            : Complete Main
    Default                                  : No
    Forced                                  : No
    
    Audio #10
    ID                                      : 11
    Format                                  : E-AC-3
    Format/Info                              : Enhanced Audio Coding 3
    Codec ID                                : A_EAC3
    Duration                                : 2 h 0 min
    Bit rate mode                            : Constant
    Bit rate                                : 500 b/s
    Channel(s)                              : 8 channels
    Channel(s)_Original                      : 6 channels
    Channel positions                        : Front: L C R, Side: L R, LFE
    Sampling rate                            : 48.0 kHz
    Frame rate                              : 187.500 FPS (256 SPF)
    Compression mode                        : Lossy
    Stream size                              : 885 MiB (2%)
    Title                                    : Guardians of the Galaxy 2014 2160p BluRay REMUX HEVC DTS-HD MA TrueHD 7.1 Atmos-PTHOME
    Language                                : German
    Service kind                            : Complete Main
    Default                                  : No
    Forced                                  : No
    
    Audio #11
    ID                                      : 12
    Format                                  : AC-3
    Format/Info                              : Audio Coding 3
    Codec ID                                : A_AC3
    Duration                                : 2 h 0 min
    Bit rate mode                            : Constant
    Bit rate                                : 576 kb/s
    Channel(s)                              : 6 channels
    Channel positions                        : Front: L C R, Side: L R, LFE
    Sampling rate                            : 48.0 kHz
    Frame rate                              : 31.250 FPS (1536 SPF)
    Bit depth                                : 16 bits
    Compression mode                        : Lossy
    Stream size                              : 498 MiB (1%)
    Title                                    : Guardians of the Galaxy 2014 2160p BluRay REMUX HEVC DTS-HD MA TrueHD 7.1 Atmos-PTHOME
    Language                                : German
    Service kind                            : Complete Main
    Default                                  : No
    Forced                                  : No
    
    Audio #12
    ID                                      : 13
    Format                                  : E-AC-3
    Format/Info                              : Enhanced Audio Coding 3
    Codec ID                                : A_EAC3
    Duration                                : 2 h 0 min
    Bit rate mode                            : Constant
    Bit rate                                : 500 b/s
    Channel(s)                              : 8 channels
    Channel(s)_Original                      : 6 channels
    Channel positions                        : Front: L C R, Side: L R, LFE
    Sampling rate                            : 48.0 kHz
    Frame rate                              : 187.500 FPS (256 SPF)
    Compression mode                        : Lossy
    Stream size                              : 885 MiB (2%)
    Title                                    : Guardians of the Galaxy 2014 2160p BluRay REMUX HEVC DTS-HD MA TrueHD 7.1 Atmos-PTHOME
    Language                                : Italian
    Service kind                            : Complete Main
    Default                                  : No
    Forced                                  : No
    
    Audio #13
    ID                                      : 14
    Format                                  : AC-3
    Format/Info                              : Audio Coding 3
    Codec ID                                : A_AC3
    Duration                                : 2 h 0 min
    Bit rate mode                            : Constant
    Bit rate                                : 576 kb/s
    Channel(s)                              : 6 channels
    Channel positions                        : Front: L C R, Side: L R, LFE
    Sampling rate                            : 48.0 kHz
    Frame rate                              : 31.250 FPS (1536 SPF)
    Bit depth                                : 16 bits
    Compression mode                        : Lossy
    Stream size                              : 498 MiB (1%)
    Title                                    : Guardians of the Galaxy 2014 2160p BluRay REMUX HEVC DTS-HD MA TrueHD 7.1 Atmos-PTHOME
    Language                                : Italian
    Service kind                            : Complete Main
    Default                                  : No
    Forced                                  : No
    
    Audio #14
    ID                                      : 15
    Format                                  : E-AC-3
    Format/Info                              : Enhanced Audio Coding 3
    Codec ID                                : A_EAC3
    Duration                                : 2 h 0 min
    Bit rate mode                            : Constant
    Bit rate                                : 500 b/s
    Channel(s)                              : 8 channels
    Channel(s)_Original                      : 6 channels
    Channel positions                        : Front: L C R, Side: L R, LFE
    Sampling rate                            : 48.0 kHz
    Frame rate                              : 187.500 FPS (256 SPF)
    Compression mode                        : Lossy
    Stream size                              : 885 MiB (2%)
    Title                                    : Guardians of the Galaxy 2014 2160p BluRay REMUX HEVC DTS-HD MA TrueHD 7.1 Atmos-PTHOME
    Language                                : Japanese
    Service kind                            : Complete Main
    Default                                  : No
    Forced                                  : No
    
    Audio #15
    ID                                      : 16
    Format                                  : AC-3
    Format/Info                              : Audio Coding 3
    Codec ID                                : A_AC3
    Duration                                : 2 h 0 min
    Bit rate mode                            : Constant
    Bit rate                                : 576 kb/s
    Channel(s)                              : 6 channels
    Channel positions                        : Front: L C R, Side: L R, LFE
    Sampling rate                            : 48.0 kHz
    Frame rate                              : 31.250 FPS (1536 SPF)
    Bit depth                                : 16 bits
    Compression mode                        : Lossy
    Stream size                              : 498 MiB (1%)
    Title                                    : Guardians of the Galaxy 2014 2160p BluRay REMUX HEVC DTS-HD MA TrueHD 7.1 Atmos-PTHOME
    Language                                : Japanese
    Service kind                            : Complete Main
    Default                                  : No
    Forced                                  : No
    
    Text #1
    ID                                      : 17
    Format                                  : UTF-8
    Codec ID                                : S_TEXT/UTF8
    Codec ID/Info                            : UTF-8 Plain Text
    Duration                                : 1 h 59 min
    Bit rate                                : 46 b/s
    Count of elements                        : 1394
    Stream size                              : 41.2 KiB (0%)
    Title                                    : English-SRT
    Language                                : English
    Default                                  : Yes
    Forced                                  : No
    
    Text #2
    ID                                      : 18
    Format                                  : UTF-8
    Codec ID                                : S_TEXT/UTF8
    Codec ID/Info                            : UTF-8 Plain Text
    Duration                                : 2 h 0 min
    Bit rate                                : 80 b/s
    Count of elements                        : 2716
    Stream size                              : 71.2 KiB (0%)
    Title                                    : Chinese-SRT
    Language                                : Chinese
    Default                                  : No
    Forced                                  : No
    
    Text #3
    ID                                      : 19
    Format                                  : PGS
    Muxing mode                              : zlib
    Codec ID                                : S_HDMV/PGS
    Codec ID/Info                            : Picture based subtitle format used on BDs/HD-DVDs
    Duration                                : 2 h 0 min
    Bit rate                                : 35.0 kb/s
    Count of elements                        : 3334
    Stream size                              : 30.2 MiB (0%)
    Title                                    : English-PGS
    Language                                : English
    Default                                  : No
    Forced                                  : No
    
    Text #4
    ID                                      : 20
    Format                                  : PGS
    Muxing mode                              : zlib
    Codec ID                                : S_HDMV/PGS
    Codec ID/Info                            : Picture based subtitle format used on BDs/HD-DVDs
    Duration                                : 2 h 0 min
    Bit rate                                : 30.5 kb/s
    Count of elements                        : 2812
    Stream size                              : 26.3 MiB (0%)
    Title                                    : French-PGS
    Language                                : French
    Default                                  : No
    Forced                                  : No
    
    Text #5
    ID                                      : 21
    Format                                  : PGS
    Muxing mode                              : zlib
    Codec ID                                : S_HDMV/PGS
    Codec ID/Info                            : Picture based subtitle format used on BDs/HD-DVDs
    Duration                                : 2 h 0 min
    Bit rate                                : 24.8 kb/s
    Count of elements                        : 2844
    Stream size                              : 21.3 MiB (0%)
    Title                                    : French-PGS
    Language                                : French
    Default                                  : No
    Forced                                  : No
    
    Text #6
    ID                                      : 22
    Format                                  : PGS
    Muxing mode                              : zlib
    Codec ID                                : S_HDMV/PGS
    Codec ID/Info                            : Picture based subtitle format used on BDs/HD-DVDs
    Duration                                : 2 h 0 min
    Bit rate                                : 29.8 kb/s
    Count of elements                        : 2886
    Stream size                              : 25.7 MiB (0%)
    Title                                    : Spanish-PGS
    Language                                : Spanish
    Default                                  : No
    Forced                                  : No
    
    Text #7
    ID                                      : 23
    Format                                  : PGS
    Muxing mode                              : zlib
    Codec ID                                : S_HDMV/PGS
    Codec ID/Info                            : Picture based subtitle format used on BDs/HD-DVDs
    Duration                                : 2 h 0 min
    Bit rate                                : 26.3 kb/s
    Count of elements                        : 2814
    Stream size                              : 22.7 MiB (0%)
    Title                                    : German-PGS
    Language                                : German
    Default                                  : No
    Forced                                  : No
    
    Text #8
    ID                                      : 24
    Format                                  : PGS
    Muxing mode                              : zlib
    Codec ID                                : S_HDMV/PGS
    Codec ID/Info                            : Picture based subtitle format used on BDs/HD-DVDs
    Duration                                : 2 h 0 min
    Bit rate                                : 30.8 kb/s
    Count of elements                        : 2852
    Stream size                              : 26.5 MiB (0%)
    Title                                    : Italian-PGS
    Language                                : Italian
    Default                                  : No
    Forced                                  : No
    
    Text #9
    ID                                      : 25
    Format                                  : PGS
    Muxing mode                              : zlib
    Codec ID                                : S_HDMV/PGS
    Codec ID/Info                            : Picture based subtitle format used on BDs/HD-DVDs
    Duration                                : 2 h 0 min
    Bit rate                                : 20.6 kb/s
    Count of elements                        : 2421
    Stream size                              : 17.8 MiB (0%)
    Title                                    : Japanese-PGS
    Language                                : Japanese
    Default                                  : No
    Forced                                  : No
    
    Text #10
    ID                                      : 26
    Format                                  : PGS
    Muxing mode                              : zlib
    Codec ID                                : S_HDMV/PGS
    Codec ID/Info                            : Picture based subtitle format used on BDs/HD-DVDs
    Duration                                : 2 h 0 min
    Bit rate                                : 28.4 kb/s
    Count of elements                        : 2848
    Stream size                              : 24.5 MiB (0%)
    Title                                    : Norwegian-PGS
    Language                                : Norwegian
    Default                                  : No
    Forced                                  : No
    
    Text #11
    ID                                      : 27
    Format                                  : PGS
    Muxing mode                              : zlib
    Codec ID                                : S_HDMV/PGS
    Codec ID/Info                            : Picture based subtitle format used on BDs/HD-DVDs
    Duration                                : 2 h 0 min
    Bit rate                                : 24.5 kb/s
    Count of elements                        : 1816
    Stream size                              : 21.2 MiB (0%)
    Title                                    : Swedish-PGS
    Language                                : Swedish
    Default                                  : No
    Forced                                  : No
    
    Text #12
    ID                                      : 28
    Format                                  : PGS
    Muxing mode                              : zlib
    Codec ID                                : S_HDMV/PGS
    Codec ID/Info                            : Picture based subtitle format used on BDs/HD-DVDs
    Duration                                : 1 h 53 min
    Bit rate                                : 538 b/s
    Count of elements                        : 38
    Stream size                              : 447 KiB (0%)
    Title                                    : French-FORCED-PGS
    Language                                : French
    Default                                  : No
    Forced                                  : No
    
    Text #13
    ID                                      : 29
    Format                                  : PGS
    Muxing mode                              : zlib
    Codec ID                                : S_HDMV/PGS
    Codec ID/Info                            : Picture based subtitle format used on BDs/HD-DVDs
    Duration                                : 1 h 53 min
    Bit rate                                : 291 b/s
    Count of elements                        : 24
    Stream size                              : 242 KiB (0%)
    Title                                    : French-FORCED-PGS
    Language                                : French
    Default                                  : No
    Forced                                  : No
    
    Text #14
    ID                                      : 30
    Format                                  : PGS
    Muxing mode                              : zlib
    Codec ID                                : S_HDMV/PGS
    Codec ID/Info                            : Picture based subtitle format used on BDs/HD-DVDs
    Duration                                : 1 h 53 min
    Bit rate                                : 293 b/s
    Count of elements                        : 22
    Stream size                              : 244 KiB (0%)
    Title                                    : Spanish-FORCED-PGS
    Language                                : Spanish
    Default                                  : No
    Forced                                  : No
    
    Text #15
    ID                                      : 31
    Format                                  : PGS
    Muxing mode                              : zlib
    Codec ID                                : S_HDMV/PGS
    Codec ID/Info                            : Picture based subtitle format used on BDs/HD-DVDs
    Duration                                : 4 min 4 s
    Bit rate                                : 658 b/s
    Count of elements                        : 4
    Stream size                              : 19.6 KiB (0%)
    Title                                    : German-FORCED-PGS
    Language                                : German
    Default                                  : No
    Forced                                  : No
    
    Text #16
    ID                                      : 32
    Format                                  : PGS
    Muxing mode                              : zlib
    Codec ID                                : S_HDMV/PGS
    Codec ID/Info                            : Picture based subtitle format used on BDs/HD-DVDs
    Duration                                : 1 h 53 min
    Bit rate                                : 309 b/s
    Count of elements                        : 24
    Stream size                              : 257 KiB (0%)
    Title                                    : Italian-FORCED-PGS
    Language                                : Italian
    Default                                  : No
    Forced                                  : No
    
    Text #17
    ID                                      : 33
    Format                                  : PGS
    Muxing mode                              : zlib
    Codec ID                                : S_HDMV/PGS
    Codec ID/Info                            : Picture based subtitle format used on BDs/HD-DVDs
    Duration                                : 1 h 54 min
    Bit rate                                : 1 026 b/s
    Count of elements                        : 96
    Stream size                              : 858 KiB (0%)
    Title                                    : Japanese-FORCED-PGS
    Language                                : Japanese
    Default                                  : No
    Forced                                  : No
    
    Menu
    00:00:00.000                            : en:Chapter 01
    00:04:05.703                            : en:Chapter 02
    00:11:21.806                            : en:Chapter 03
    00:15:21.420                            : en:Chapter 04
    00:20:54.419                            : en:Chapter 05
    00:27:10.920                            : en:Chapter 06
    00:33:58.578                            : en:Chapter 07
    00:44:28.290                            : en:Chapter 08
    00:50:53.008                            : en:Chapter 09
    00:55:17.564                            : en:Chapter 10
    00:59:45.206                            : en:Chapter 11
    01:06:06.921                            : en:Chapter 12
    01:14:45.647                            : en:Chapter 13
    01:22:20.644                            : en:Chapter 14
    01:26:29.726                            : en:Chapter 15
    01:30:23.501                            : en:Chapter 16
    01:35:58.377                            : en:Chapter 17
    01:40:46.582                            : en:Chapter 18
    01:47:35.365                            : en:Chapter 19
    01:53:16.289                            : en:Chapter 20
    02:00:10.661                            : en:Chapter 21
    Download:
     
  2. Loading...


Share This Page