Google Drive Gun.Shy.2000.1080p.BluRay.x264-HANDJOB

Discussion in 'BDRip | 720p/1080p' started by DDLbase, Feb 16, 2021.

  1. DDLbase

    DDLbase Administrator Staff Member

    [​IMG]

    Rating: 5.7/10 based on 6,933 user ratings

    Genres: Comedy, Crime, Romance

    An undercover DEA agent brings down the Mafia.

    [​IMG]
    Code:
    General
    Unique ID                   : 77415117721142196012180626810228491056 (0x3A3D9BFD7E1F264B81045378BDC4C330)
    Complete name               : Gun.Shy.2000.1080p.BluRay.x264-HANDJOB.mkv
    Format                      : Matroska
    Format version              : Version 4
    File size                   : 8.89 GiB
    Duration                    : 1 h 41 min
    Overall bit rate            : 12.5 Mb/s
    Movie name                  : Gun Shy [2000] 1080p BluRay - HJ
    Encoded date                : UTC 2019-05-13 03:02:48
    Writing application         : mkvmerge v33.1.0 ('Primrose') 64-bit
    Writing library             : libebml v1.3.7 + libmatroska v1.5.0
    
    Video
    ID                          : 1
    Format                      : AVC
    Format/Info                 : Advanced Video Codec
    Format profile              : [email protected]
    Format settings             : CABAC / 4 Ref Frames
    Format settings, CABAC      : Yes
    Format settings, Reference  : 4 frames
    Codec ID                    : V_MPEG4/ISO/AVC
    Duration                    : 1 h 41 min
    Bit rate                    : 10.9 Mb/s
    Width                       : 1 920 pixels
    Height                      : 1 036 pixels
    Display aspect ratio        : 1.85:1
    Frame rate mode             : Constant
    Frame rate                  : 23.976 (24000/1001) FPS
    Color space                 : YUV
    Chroma subsampling          : 4:2:0
    Bit depth                   : 8 bits
    Scan type                   : Progressive
    Bits/(Pixel*Frame)          : 0.229
    Stream size                 : 7.74 GiB (87%)
    Writing library             : x264 core 148
    Encoding settings           : cabac=1 / ref=4 / deblock=1:-3:-3 / analyse=0x3:0x133 / me=umh / subme=10 / psy=1 / psy_rd=1.00:0.00 / mixed_ref=1 / me_range=24 / chroma_me=1 / trellis=2 / 8x8dct=1 / cqm=0 / deadzone=21,11 / fast_pskip=0 / chroma_qp_offset=-2 / threads=6 / lookahead_threads=1 / sliced_threads=0 / nr=0 / decimate=0 / interlaced=0 / bluray_compat=0 / constrained_intra=0 / bframes=8 / b_pyramid=2 / b_adapt=2 / b_bias=0 / direct=3 / weightb=1 / open_gop=0 / weightp=2 / keyint=240 / keyint_min=24 / scenecut=40 / intra_refresh=0 / rc_lookahead=60 / rc=crf / mbtree=0 / crf=18.8 / qcomp=0.60 / qpmin=0 / qpmax=69 / qpstep=4 / vbv_maxrate=62500 / vbv_bufsize=78125 / crf_max=0.0 / nal_hrd=none / filler=0 / ip_ratio=1.40 / pb_ratio=1.30 / aq=2:1.00
    Default                     : Yes
    Forced                      : No
    Color range                 : Limited
    Color primaries             : BT.709
    Transfer characteristics    : BT.709
    Matrix coefficients         : BT.709
    
    Audio #1
    ID                          : 2
    Format                      : DTS
    Format/Info                 : Digital Theater Systems
    Codec ID                    : A_DTS
    Duration                    : 1 h 41 min
    Bit rate mode               : Constant
    Bit rate                    : 1 509 kb/s
    Channel(s)                  : 6 channels
    Channel layout              : C L R Ls Rs LFE
    Sampling rate               : 48.0 kHz
    Frame rate                  : 93.750 FPS (512 SPF)
    Bit depth                   : 16 bits
    Compression mode            : Lossy
    Delay relative to video     : -21 ms
    Stream size                 : 1.07 GiB (12%)
    Language                    : English
    Default                     : Yes
    Forced                      : No
    
    Audio #2
    ID                          : 3
    Format                      : AAC LC
    Format/Info                 : Advanced Audio Codec Low Complexity
    Codec ID                    : A_AAC-2
    Duration                    : 1 h 41 min
    Bit rate                    : 93.3 kb/s
    Channel(s)                  : 2 channels
    Channel layout              : L R
    Sampling rate               : 48.0 kHz
    Frame rate                  : 46.875 FPS (1024 SPF)
    Compression mode            : Lossy
    Delay relative to video     : -21 ms
    Stream size                 : 67.8 MiB (1%)
    Title                       : Commentary by director Eric Blakeney
    Language                    : English
    Default                     : No
    Forced                      : No
    
    Text
    ID                          : 4
    Format                      : PGS
    Muxing mode                 : zlib
    Codec ID                    : S_HDMV/PGS
    Codec ID/Info               : Picture based subtitle format used on BDs/HD-DVDs
    Duration                    : 1 h 40 min
    Bit rate                    : 38.8 kb/s
    Count of elements           : 2460
    Stream size                 : 28.0 MiB (0%)
    Language                    : English
    Default                     : No
    Forced                      : No
    
    Menu
    00:00:00.000                : :Chapter 1
    00:09:03.918                : :Chapter 2
    00:20:11.669                : :Chapter 3
    00:32:21.148                : :Chapter 4
    00:47:33.351                : :Chapter 5
    01:02:07.349                : :Chapter 6
    01:14:23.376                : :Chapter 7
    01:25:40.927                : :Chapter 8
    Download - Mirror 1:
    Download - Mirror 2:
     
  2. Loading...


Share This Page